<?xml version="1.0" standalone="no"?>
<!DOCTYPE svg PUBLIC "-//W3C//DTD SVG 1.1//EN" "http://www.w3.org/Graphics/SVG/1.1/DTD/svg11.dtd" >
<svg xmlns="http://www.w3.org/2000/svg" xmlns:xlink="http://www.w3.org/1999/xlink" version="1.1">
<metadata>
Created by FontForge 20190801 at Thu May 26 16:03:26 2022
 By www-data
Copyright 2012 The Belleza Project Authors (https://github.com/etunni/belleza)
</metadata>
<defs>
<font id="BellezaRegular" horiz-adv-x="500" >
  <font-face 
    font-family="BellezaRegular"
    font-weight="400"
    font-stretch="normal"
    units-per-em="1000"
    panose-1="0 0 0 0 0 0 0 0 0 0"
    ascent="800"
    descent="-200"
    x-height="452"
    cap-height="662"
    bbox="-142 -312 1109 1171"
    underline-thickness="50"
    underline-position="-125"
    unicode-range="U+0020-FB02"
  />
<missing-glyph horiz-adv-x="250" 
 />
    <glyph glyph-name="fi" unicode="fi" horiz-adv-x="566" 
d="M103 0v416l-82 16v20h83q4 68 27.5 122.5t65 86t100.5 31.5q18 0 38 -3.5t38 -8.5l-10 -65q-15 8 -36.5 15t-41 11t-31.5 4q-19 -10 -31.5 -33.5t-20 -53t-11 -58t-4.5 -48.5h121v-36h-121v-416h-84zM408 0v452h83v-452h-83zM449 541q-22 0 -36.5 16t-14.5 36
q0 22 14.5 37t36.5 15q21 0 36.5 -15t15.5 -37q0 -20 -15.5 -36t-36.5 -16z" />
    <glyph glyph-name="fl" unicode="fl" horiz-adv-x="567" 
d="M103 0v416l-82 16v20h83q4 68 27.5 122.5t65 86t100.5 31.5q18 0 38 -3.5t38 -8.5l-10 -65q-15 8 -36.5 15t-41 11t-31.5 4q-19 -10 -31.5 -33.5t-20 -53t-11 -58t-4.5 -48.5h121v-36h-121v-416h-84zM408 0v683h84v-683h-84z" />
    <glyph glyph-name=".notdef" horiz-adv-x="250" 
 />
    <glyph glyph-name=".null" horiz-adv-x="0" 
 />
    <glyph glyph-name="nonmarkingreturn" horiz-adv-x="333" 
 />
    <glyph glyph-name="space" unicode=" " horiz-adv-x="250" 
 />
    <glyph glyph-name="exclam" unicode="!" horiz-adv-x="333" 
d="M165 158l-30 495h95l-30 -495h-35zM182 -9q-16 0 -35 11.5t-19 39.5q0 23 16 38.5t38 15.5q23 0 39 -16t16 -38q0 -27 -18.5 -39t-36.5 -12z" />
    <glyph glyph-name="quotedbl" unicode="&#x22;" horiz-adv-x="350" 
d="M247 431l-28 176v70h81v-70l-29 -176h-24zM78 431l-28 176v70h81v-70l-29 -176h-24z" />
    <glyph glyph-name="numbersign" unicode="#" 
d="M79 0l33 216h-107v55h116l21 134h-110v55h118l31 202h58l-31 -202h133l30 202h58l-30 -202h97v-55h-105l-20 -134h100v-55h-109l-31 -216h-58l31 216h-134l-33 -216h-58zM179 271h134l20 134h-133z" />
    <glyph glyph-name="dollar" unicode="$" 
d="M230 -87v81q-53 1 -99.5 14.5t-72.5 24.5v47q16 -9 45 -21t62.5 -21t64.5 -9v272q-40 24 -78.5 51.5t-64 65t-25.5 91.5q0 37 16 72.5t53 60t99 27.5v64h34v-64q53 0 98.5 -11.5t69.5 -21.5l-10 -66q-42 25 -77.5 40t-80.5 21v-234l64 -42t59.5 -46t44 -57t16.5 -74
q0 -72 -46 -123t-138 -59v-83h-34zM230 420v207q-41 -10 -59 -39.5t-18 -56.5q0 -35 22 -61.5t55 -49.5zM264 33q43 11 67 43t24 83q0 41 -26.5 68.5t-64.5 52.5v-247z" />
    <glyph glyph-name="percent" unicode="%" horiz-adv-x="799" 
d="M177 291q-58 0 -97.5 48t-39.5 137q0 78 26 123.5t63.5 65t71.5 19.5q57 0 97 -49t40 -138q0 -58 -15.5 -97.5t-39.5 -63.5t-52 -34.5t-54 -10.5zM200 -14l353 691h46l-350 -691h-49zM187 334q78 0 78 151q0 42 -10.5 76.5t-28.5 55.5t-39 21q-37 0 -57 -41.5t-20 -111.5
q0 -41 10.5 -75.5t28 -55t38.5 -20.5zM598 -10q-58 0 -97.5 48t-39.5 137q0 78 26 123.5t63.5 65t71.5 19.5q57 0 97 -49t40 -138q0 -58 -15.5 -97.5t-39.5 -63.5t-52 -34.5t-54 -10.5zM608 33q78 0 78 151q0 42 -10.5 76.5t-28.5 55.5t-39 21q-37 0 -57 -41.5t-20 -111.5
q0 -41 10.5 -75.5t28 -55t38.5 -20.5z" />
    <glyph glyph-name="ampersand" unicode="&#x26;" horiz-adv-x="778" 
d="M250 -13q-31 0 -67 8.5t-68 29t-52.5 55.5t-20.5 88q0 62 47.5 113t156.5 69q-38 85 -38 156q0 13 5 41t21.5 58t49.5 51t88 21q15 0 40.5 -3.5t51 -9t41.5 -13.5l-10 -63q-33 25 -77 36.5t-81 11.5q-25 -16 -36.5 -44t-11.5 -66q0 -52 21.5 -117t62.5 -130.5t97 -122.5
q27 44 44 91t28 83h-19.5t-17.5 1v31q44 2 91.5 8t78.5 14l-17 -50q-13 -2 -31 -3t-38 -2q-10 -30 -32 -86.5t-60 -112.5q51 -44 110 -71.5t124 -27.5l-43 -31q-63 0 -121 22t-109 59q-37 -40 -88.5 -67t-119.5 -27zM279 34q49 0 86.5 19t65.5 49q-55 45 -98.5 101.5
t-72.5 114.5q-48 -13 -77 -38t-41.5 -54t-12.5 -58q0 -49 21 -78.5t55.5 -42.5t73.5 -13z" />
    <glyph glyph-name="quotesingle" unicode="'" horiz-adv-x="181" 
d="M78 431l-28 176v70h81v-70l-29 -176h-24z" />
    <glyph glyph-name="parenleft" unicode="(" horiz-adv-x="333" 
d="M282 -176q-117 66 -175.5 174t-58.5 253q0 146 58.5 253.5t175.5 172.5l2 -16q-35 -30 -64 -63.5t-50 -79t-32.5 -110t-11.5 -157.5t11.5 -158t32.5 -110t50 -78.5t64 -63.5z" />
    <glyph glyph-name="parenright" unicode=")" horiz-adv-x="333" 
d="M51 -177l-2 16q35 30 64 63.5t50 79t32.5 110t11.5 157.5t-11.5 158t-32.5 110t-50 78.5t-64 63.5l2 17q117 -66 175.5 -173.5t58.5 -253.5q0 -145 -58.5 -253t-175.5 -173z" />
    <glyph glyph-name="asterisk" unicode="*" horiz-adv-x="507" 
d="M220 292v60l22 93l-70 -65l-52 -30l-40 69l52 30l91 28l-91 28l-52 30l40 69l52 -30l69 -65l-21 93v60h80v-60l-22 -93l70 65l52 30l40 -69l-52 -30l-91 -28l91 -28l52 -30l-40 -69l-52 30l-70 65l22 -93v-60h-80z" />
    <glyph glyph-name="plus" unicode="+" horiz-adv-x="564" 
d="M253 29v195h-194v58h194v195h58v-195h194v-58h-194v-195h-58z" />
    <glyph glyph-name="comma" unicode="," horiz-adv-x="235" 
d="M63 -142l-12 19q29 23 48 55t19 64q-21 0 -41.5 14t-20.5 41q14 21 45 37.5t60 19.5q8 -22 11 -42t3 -38q0 -62 -33 -103t-79 -67z" />
    <glyph glyph-name="hyphen" unicode="-" horiz-adv-x="333" 
d="M39 194v63h246v-63h-246z" />
    <glyph glyph-name="period" unicode="." horiz-adv-x="250" 
d="M125 -11q-23 0 -39 16t-16 39t16 39.5t39 16.5t39.5 -16.5t16.5 -39.5t-16.5 -39t-39.5 -16z" />
    <glyph glyph-name="slash" unicode="/" horiz-adv-x="278" 
d="M-9 -14l229 691h67l-228 -691h-68z" />
    <glyph glyph-name="zero" unicode="0" 
d="M229 -12q-56 0 -102.5 32.5t-73.5 95.5t-27 153q0 88 23 147.5t59.5 94.5t78.5 50.5t81 15.5q57 0 103 -31t73.5 -92.5t27.5 -152.5q0 -88 -23 -148t-59.5 -96.5t-79 -52.5t-81.5 -16zM246 35q66 0 99.5 63t33.5 185q0 69 -18 124t-48 87t-67 32q-64 0 -98 -64.5
t-34 -178.5q0 -68 18 -124.5t48 -90t66 -33.5z" />
    <glyph glyph-name="one" unicode="1" 
d="M71 0v63l142 -10v437l-134 -69l-34 58l249 101h4v-527l142 10v-63h-369z" />
    <glyph glyph-name="two" unicode="2" 
d="M56 0v48q45 28 95.5 70.5t94 92.5t71 100.5t27.5 95.5q0 38 -19 69t-63 48q-32 0 -76.5 -7.5t-86.5 -20.5l-20 63q15 5 40.5 9.5t53.5 8t49 3.5q82 0 127 -25.5t63.5 -65t18.5 -81.5q0 -33 -19.5 -71.5t-52 -78.5t-71.5 -77.5t-77.5 -69t-70.5 -53.5v-6l304 15v-67h-388z
" />
    <glyph glyph-name="three" unicode="3" 
d="M194 -108q-58 0 -105.5 11t-68.5 18l20 64q36 -17 67 -30t73 -21q40 0 75 17t56.5 50.5t21.5 82.5q0 38 -20.5 72.5t-67 56.5t-126.5 22l-1 27q73 5 113.5 25.5t57 52t16.5 66.5q0 11 -5 33t-23.5 45.5t-60.5 39.5q-32 0 -72 -7.5t-82 -20.5l-20 63q15 5 38.5 9.5t49 8
t46.5 3.5q63 0 112.5 -19.5t78.5 -57t29 -92.5q0 -52 -38 -93t-101 -63q87 -18 130 -63.5t43 -99.5q0 -51 -21.5 -89t-56.5 -62.5t-76.5 -36.5t-81.5 -12z" />
    <glyph glyph-name="four" unicode="4" 
d="M286 -100v169h-287v43l287 450h84v-430h114v-63h-114v-169h-84zM57 132h229v367z" />
    <glyph glyph-name="five" unicode="5" 
d="M194 -108q-73 0 -113 8.5t-61 15.5l20 64q36 -17 67 -27.5t73 -18.5q40 0 74 14.5t55 45t21 79.5q0 37 -21.5 74.5t-72.5 63t-141 25.5h-30l16 326h331l-10 -67l-243 15l-12 -249q97 -4 158.5 -31.5t91 -68.5t29.5 -88q0 -51 -23.5 -86t-60 -56t-76 -30t-72.5 -9z" />
    <glyph glyph-name="six" unicode="6" 
d="M248 -12q-70 0 -116 41.5t-69 111.5t-23 153q0 93 25 164t66 119.5t90 73t96 24.5q32 0 66.5 -7t55.5 -13l-20 -64q-43 14 -73.5 21.5t-70.5 7.5q-42 -16 -74 -60.5t-50.5 -108.5t-21.5 -137h6q28 36 64.5 52t79.5 16q52 0 92.5 -23.5t64 -66t23.5 -101.5
q0 -57 -19.5 -96t-50.5 -62.5t-68 -34t-73 -10.5zM247 32q33 0 59.5 21t42 56t15.5 78q0 34 -9.5 65t-33 53.5t-64.5 30.5q-38 -4 -67 -18t-45 -28.5t-16 -18.5q0 -58 14 -113t40.5 -90.5t63.5 -35.5z" />
    <glyph glyph-name="seven" unicode="7" 
d="M189 -108l-80 33l271 588l-329 -18l-10 67h408v-46z" />
    <glyph glyph-name="eight" unicode="8" 
d="M246 -12q-62 0 -104.5 24t-64 60.5t-21.5 75.5q0 44 14 72.5t43 54t73 59.5q-42 37 -69.5 64.5t-41 56t-13.5 68.5q0 51 29 84.5t72 50.5t86 17q85 0 130 -41t45 -98q0 -46 -22 -77t-53.5 -51t-58.5 -35q67 -48 100 -85.5t44 -69.5t11 -66q0 -19 -8 -47t-29 -54.5
t-60.5 -44.5t-101.5 -18zM258 388q17 13 37 34.5t34.5 51.5t14.5 66q0 38 -30 65t-73 27q-40 0 -68 -24.5t-28 -59.5q0 -40 21.5 -71.5t48.5 -54t43 -34.5zM258 32q42 0 71.5 28t29.5 68q0 37 -14 63.5t-45.5 54t-84.5 68.5q-14 -13 -31.5 -36t-29.5 -53.5t-12 -66.5
q0 -35 15.5 -63.5t42 -45.5t58.5 -17z" />
    <glyph glyph-name="nine" unicode="9" 
d="M175 -107q-21 0 -46.5 4t-48.5 9.5t-37 9.5l20 64q43 -13 78.5 -22.5t75.5 -9.5q42 16 74 61t51 108.5t21 136.5h-6q-28 -36 -64.5 -52t-79.5 -16q-51 0 -92 23.5t-64.5 66.5t-23.5 101q0 57 19.5 96t50.5 62.5t68 34t73 10.5q70 0 116 -41.5t69 -111t23 -153.5
q0 -93 -25 -164t-66 -119.5t-90 -73t-96 -24.5zM235 232q39 4 67.5 18.5t44.5 28.5t16 18q0 59 -14 113.5t-40 90t-64 35.5q-32 0 -59 -21t-42.5 -56t-15.5 -78q0 -34 9.5 -65t33 -53.5t64.5 -30.5z" />
    <glyph glyph-name="colon" unicode=":" horiz-adv-x="211" 
d="M105 348q-23 0 -39 16t-16 39t16 39.5t39 16.5t39.5 -16.5t16.5 -39.5t-16.5 -39t-39.5 -16zM105 -11q-23 0 -39 16t-16 39t16 39.5t39 16.5t39.5 -16.5t16.5 -39.5t-16.5 -39t-39.5 -16z" />
    <glyph glyph-name="semicolon" unicode=";" horiz-adv-x="211" 
d="M105 348q-23 0 -39 16t-16 39t16 39.5t39 16.5t39.5 -16.5t16.5 -39.5t-16.5 -39t-39.5 -16zM57 -142l-12 19q29 23 48 55t19 64q-21 0 -41.5 14t-20.5 41q14 21 45 37.5t60 19.5q8 -22 11 -42t3 -38q0 -62 -33 -103t-79 -67z" />
    <glyph glyph-name="less" unicode="&#x3c;" horiz-adv-x="564" 
d="M507 22l-450 204v54l450 204v-60l-377 -171l377 -171v-60z" />
    <glyph glyph-name="equal" unicode="=" horiz-adv-x="564" 
d="M59 312v59h446v-59h-446zM59 135v59h446v-59h-446z" />
    <glyph glyph-name="greater" unicode="&#x3e;" horiz-adv-x="564" 
d="M57 22v60l377 171l-377 171v60l450 -204v-54z" />
    <glyph glyph-name="question" unicode="?" horiz-adv-x="444" 
d="M216 160l-29 23q41 45 74 95.5t52.5 101t19.5 94.5q0 42 -20 74.5t-66 50.5q-28 0 -70 -6.5t-73 -15.5v63q20 5 49 10t54 5q82 0 127 -25.5t63.5 -65t18.5 -81.5q0 -35 -17.5 -76t-47 -84.5t-64.5 -85t-71 -77.5zM210 -8q-16 0 -35 12t-19 40q0 23 16 38.5t38 15.5
q23 0 39 -16t16 -38q0 -27 -18.5 -39.5t-36.5 -12.5z" />
    <glyph glyph-name="at" unicode="@" horiz-adv-x="971" 
d="M495 -137q-86 0 -161.5 31t-132.5 85.5t-89.5 127t-32.5 154.5q0 83 32.5 155t89.5 126.5t132.5 85.5t161.5 31q80 0 148.5 -28t120 -76t80 -109.5t28.5 -128.5q0 -76 -22 -129t-56 -85.5t-70 -47.5t-64 -15q-36 0 -62 27t-29 65h-4q-20 -42 -53 -64.5t-66 -22.5
q-43 0 -71 25t-42 65.5t-14 85.5q0 40 11 82t34 78t57.5 58.5t80.5 22.5q51 0 107 -41l35 33h32l-46 -284q-1 -6 -1.5 -12.5t-0.5 -11.5q0 -30 13.5 -47.5t43.5 -17.5q18 0 43 13.5t49 42t40 73.5t16 108q0 64 -27.5 120t-74.5 98.5t-105.5 66.5t-121.5 24q-70 0 -131 -28.5
t-107 -78.5t-71.5 -116t-25.5 -142t25.5 -142t71.5 -116t107 -78.5t131 -28.5q50 0 96.5 15t86.5 41l27 -37q-48 -28 -103.5 -40.5t-115.5 -12.5zM461 97q20 2 42.5 16.5t39.5 31.5t19 26l35 212q-16 13 -41 21t-51 8q-27 0 -52 -22t-40.5 -62.5t-15.5 -95.5
q0 -45 13.5 -84.5t50.5 -50.5z" />
    <glyph glyph-name="A" unicode="A" horiz-adv-x="629" 
d="M10 0l297 678h15l297 -678h-109l-75 180h-297l-74 -180h-54zM153 218h266l-132 324z" />
    <glyph glyph-name="B" unicode="B" horiz-adv-x="644" 
d="M90 0v662h189q73 0 129.5 -16.5t89 -50.5t32.5 -89t-39 -96t-107 -61q95 -18 139.5 -63.5t44.5 -99.5q0 -51 -26.5 -87t-68.5 -57.5t-88.5 -31.5t-86.5 -10h-208zM187 359h72q66 0 103 20.5t52 53.5t15 68q0 38 -26 72.5t-86 52.5q-28 0 -66 -6t-64 -14v-247zM278 35
q46 0 87 15.5t66.5 47.5t25.5 80q0 42 -26 76.5t-70 55t-98 20.5h-76v-285q14 -4 40.5 -7t50.5 -3z" />
    <glyph glyph-name="C" unicode="C" horiz-adv-x="632" 
d="M395 -12q-72 0 -138 19.5t-117.5 60t-81.5 101.5t-30 144q0 96 34.5 164.5t91.5 112t125 64t134 20.5q31 0 65 -5t63 -12t45 -13l-10 -68q-54 23 -106.5 40t-117.5 17q-106 -24 -162 -104.5t-56 -199.5q0 -100 36.5 -168.5t99.5 -103t144 -34.5q53 0 105 13.5t83 40.5
v-55q-30 -12 -67 -19.5t-73.5 -11t-66.5 -3.5z" />
    <glyph glyph-name="D" unicode="D" horiz-adv-x="708" 
d="M90 0v662h189q67 0 135 -18.5t125 -60t91.5 -108t34.5 -162.5q0 -83 -30 -142.5t-81.5 -97t-117.5 -55.5t-138 -18h-208zM278 34q81 0 144.5 32t100 97.5t36.5 165.5q0 77 -28.5 138t-78 102t-112.5 57q-35 0 -79.5 -6t-72.5 -15v-562q14 -4 40 -6.5t50 -2.5z" />
    <glyph glyph-name="E" unicode="E" horiz-adv-x="562" 
d="M90 0v662h401l-10 -67l-186 31q-29 0 -54 -4.5t-54 -12.5v-243h222v-38h-222v-292l310 31l-10 -67h-397z" />
    <glyph glyph-name="F" unicode="F" horiz-adv-x="481" 
d="M90 0v662h391v-67l-185 31q-30 0 -55 -4.5t-54 -12.5v-243h212v-38h-212v-328h-97z" />
    <glyph glyph-name="G" unicode="G" horiz-adv-x="680" 
d="M399 -12q-70 0 -135.5 19.5t-118 59.5t-83 101t-30.5 144q0 96 35.5 164.5t93 112.5t125 64.5t131.5 20.5q31 0 65 -5t63 -12t45 -14l-10 -67q-58 25 -112 41t-112 16q-100 -25 -159 -106.5t-59 -198.5q0 -100 36.5 -168t99.5 -102.5t144 -34.5q23 0 46 2.5t45 7.5v252
h97v-263q-30 -12 -67 -19.5t-73.5 -11t-66.5 -3.5z" />
    <glyph glyph-name="H" unicode="H" horiz-adv-x="677" 
d="M90 0v662h97v-296h303v296h97v-662h-97v328h-303v-328h-97z" />
    <glyph glyph-name="I" unicode="I" horiz-adv-x="272" 
d="M90 0v662h92v-662h-92z" />
    <glyph glyph-name="J" unicode="J" horiz-adv-x="279" 
d="M-42 -224q-22 0 -50.5 4t-49.5 10l10 78q18 -12 43 -22t51.5 -16.5t46.5 -6.5q23 14 41 47t29 78t11 93v621h99v-621q0 -73 -31 -133t-83 -96t-117 -36z" />
    <glyph glyph-name="K" unicode="K" horiz-adv-x="609" 
d="M481 -13l-289 339v-326h-102v662h102v-326l309 326h66l-313 -308l355 -354z" />
    <glyph glyph-name="L" unicode="L" horiz-adv-x="487" 
d="M90 0v662h98v-608q26 -7 52.5 -12.5t45.5 -5.5l181 31l-12 -67h-365z" />
    <glyph glyph-name="M" unicode="M" horiz-adv-x="889" 
d="M82 0l37 662h93l231 -505l221 505h102l37 -662h-102l-27 569h-4l-252 -569h-14l-247 546h-4l-27 -546h-44z" />
    <glyph glyph-name="N" unicode="N" horiz-adv-x="683" 
d="M576 -11l-438 548h-4v-537h-44v662h74l381 -481h4v481h44v-673h-17z" />
    <glyph glyph-name="O" unicode="O" horiz-adv-x="725" 
d="M333 -12q-83 0 -151 37.5t-108 110t-40 177.5q0 82 22 143t59.5 102.5t84 67t96 37t95.5 11.5q84 0 152 -37t108 -109t40 -177q0 -82 -22 -143t-60 -103t-84.5 -68t-96 -37.5t-95.5 -11.5zM362 21q60 0 102.5 29t69 75t39 100t12.5 103q0 62 -12.5 117.5t-41 97.5t-76 66
t-118.5 24q-67 -23 -111 -70t-65 -108t-21 -127q0 -61 12.5 -116.5t38.5 -98.5t68.5 -67.5t102.5 -24.5z" />
    <glyph glyph-name="P" unicode="P" horiz-adv-x="546" 
d="M90 0v662h215q66 0 118 -20.5t82 -58.5t30 -93q0 -65 -33 -108.5t-92 -65t-137 -21.5h-86v-295h-97zM187 324h89q51 0 82 18t47 45t21.5 54t5.5 44q0 6 -2.5 24t-13 41t-33 44t-62.5 32q-31 0 -70 -5t-64 -12v-285z" />
    <glyph glyph-name="Q" unicode="Q" horiz-adv-x="725" 
d="M490 -180l-148 168h-9q-83 0 -151 37.5t-108 110t-40 177.5q0 82 22 143t59.5 102.5t84 67t96 37t95.5 11.5q84 0 152 -37t108 -109t40 -177q0 -86 -24.5 -149t-65 -105.5t-91 -67t-101.5 -33.5l164 -117zM362 21q60 0 102.5 29t69 75t39 100t12.5 103q0 62 -12.5 117.5
t-41 97.5t-76 66t-118.5 24q-67 -23 -111 -70t-65 -108t-21 -127q0 -61 12.5 -116.5t38.5 -98.5t68.5 -67.5t102.5 -24.5z" />
    <glyph glyph-name="R" unicode="R" horiz-adv-x="638" 
d="M497 -14l-232 330h-77v-316h-98v662h216q65 0 117 -19.5t82.5 -57t30.5 -92.5q0 -71 -54 -112.5t-137 -56.5l268 -324zM188 346h64q73 0 111.5 21t53.5 53.5t15 67.5q0 5 -2.5 22.5t-12.5 40t-32.5 43t-62.5 31.5q-29 0 -68.5 -5t-65.5 -12v-262z" />
    <glyph glyph-name="S" unicode="S" horiz-adv-x="556" 
d="M262 -12q-59 0 -111.5 14t-81.5 25v47q17 -8 46 -20.5t64 -21.5t68 -9q66 0 106.5 34.5t40.5 97.5q0 39 -23 67t-59.5 51t-77.5 44.5t-77.5 47t-59.5 60t-23 81.5q0 39 21 77.5t67 64.5t121 26q41 0 89 -10t83 -21l-10 -68q-58 25 -115 41.5t-116 16.5
q-29 -14 -40.5 -36.5t-11.5 -49.5q0 -40 24 -70.5t62.5 -56t81 -49.5t81 -52t62.5 -63t24 -82q0 -52 -26 -94.5t-78 -67t-131 -24.5z" />
    <glyph glyph-name="T" unicode="T" horiz-adv-x="535" 
d="M219 0v614q-16 4 -32 6t-36 2l-135 -31l-6 71h515l-5 -71l-136 31q-20 0 -36 -2t-32 -6v-614h-97z" />
    <glyph glyph-name="U" unicode="U" horiz-adv-x="657" 
d="M323 -12q-74 0 -121 20.5t-73.5 52t-37.5 67t-13.5 66.5t-2.5 49v419h102v-427q0 -19 1.5 -45.5t9.5 -53.5t26.5 -51t51.5 -38.5t85 -14.5q86 0 136.5 46t50.5 154v430h44v-406q0 -24 -2.5 -58t-14 -70.5t-39 -68.5t-76.5 -51.5t-127 -19.5z" />
    <glyph glyph-name="V" unicode="V" horiz-adv-x="597" 
d="M307 -16l-297 678h109l220 -542l198 542h50l-264 -678h-16z" />
    <glyph glyph-name="W" unicode="W" horiz-adv-x="856" 
d="M263 -15l-253 677h109l176 -542l112 334l-78 208h109l176 -542l182 542h50l-248 -677h-16l-153 410l-150 -410h-16z" />
    <glyph glyph-name="X" unicode="X" horiz-adv-x="646" 
d="M30 0l250 321l-238 341h125l166 -275l208 275h61l-247 -306l261 -356h-125l-188 292l-212 -292h-61z" />
    <glyph glyph-name="Y" unicode="Y" horiz-adv-x="557" 
d="M246 0v246l-226 416h109l185 -380l173 380h50l-194 -411v-251h-97z" />
    <glyph glyph-name="Z" unicode="Z" horiz-adv-x="571" 
d="M16 0v10l382 599q-28 8 -53.5 12.5t-55.5 4.5l-206 -31l-10 67h468v-10l-394 -612l359 27l10 -67h-500z" />
    <glyph glyph-name="bracketleft" unicode="[" horiz-adv-x="333" 
d="M299 -156l-211 16v786l211 16v-26l-135 -28v-710l135 -29v-25z" />
    <glyph glyph-name="backslash" unicode="\" horiz-adv-x="278" 
d="M219 -14l-228 691h67l229 -691h-68z" />
    <glyph glyph-name="bracketright" unicode="]" horiz-adv-x="333" 
d="M34 -156v26l135 28v710l-135 29v25l211 -16v-786z" />
    <glyph glyph-name="asciicircum" unicode="^" horiz-adv-x="469" 
d="M24 297l181 365h60l181 -365h-68l-143 289l-143 -289h-68z" />
    <glyph glyph-name="underscore" unicode="_" 
d="M0 -125v50h500v-50h-500z" />
    <glyph glyph-name="grave" unicode="`" horiz-adv-x="333" 
d="M202 507l-188 138l56 50l172 -188h-40z" />
    <glyph glyph-name="a" unicode="a" horiz-adv-x="444" 
d="M367 -13l-81 73q-36 -33 -70.5 -52.5t-75.5 -19.5t-74 27t-33 77q0 39 26 65.5t66 42.5t83 24t77 10v94q0 83 -96 83q-25 0 -57.5 -5.5t-72.5 -18.5l-9 25q11 9 37 21t60 21.5t69 9.5q57 0 88 -16.5t44 -42t16 -53t3 -49.5v-170q0 -34 9.5 -56t22 -34t20.5 -18zM178 34
q24 5 48.5 19.5t41.5 30t17 22.5v103q-75 -5 -119.5 -32.5t-44.5 -58.5t16.5 -53.5t40.5 -30.5z" />
    <glyph glyph-name="b" unicode="b" 
d="M218 -13q-37 0 -74.5 9.5t-74.5 29.5v657h84v-294q32 37 70.5 55t75.5 18q44 0 82.5 -25.5t62 -77.5t23.5 -130q0 -74 -34.5 -128.5t-91 -84t-123.5 -29.5zM253 29q42 0 70.5 26t43 69t14.5 94q0 57 -16.5 96t-43 62.5t-56.5 32.5q-30 -2 -55.5 -16.5t-41 -30
t-15.5 -20.5v-286q13 -7 41 -17t59 -10z" />
    <glyph glyph-name="c" unicode="c" horiz-adv-x="406" 
d="M228 -12q-56 0 -102 26t-73 76t-27 122q0 77 28.5 133.5t78 87.5t111.5 31q33 0 67.5 -9.5t51.5 -16.5l-10 -66q-47 25 -86.5 35.5t-64.5 10.5q-38 -19 -59.5 -55t-30 -74.5t-8.5 -68.5q0 -51 21 -91t56 -63t77 -23q35 0 62 8t49 19v-35q-28 -18 -63.5 -32.5t-77.5 -14.5
z" />
    <glyph glyph-name="d" unicode="d" 
d="M424 -13l-82 73q-37 -34 -69.5 -53t-76.5 -19q-22 0 -51 9.5t-56 34.5t-45 72.5t-18 122.5q0 39 11 80.5t33 77t55.5 57t78.5 21.5q29 0 63 -11t72 -35v266h85v-549q0 -34 9.5 -56t21.5 -34.5t20 -19.5zM203 33q39 3 69.5 17t48.5 29t18 22v279q-27 18 -51.5 26.5
t-45.5 8.5q-40 0 -68.5 -25.5t-44 -69t-15.5 -97.5q0 -85 27 -133t62 -57z" />
    <glyph glyph-name="e" unicode="e" horiz-adv-x="469" 
d="M243 -12q-62 0 -111.5 26t-77.5 76t-28 122q0 83 32 139t84 84.5t111 28.5q47 0 85.5 -24.5t62 -73t23.5 -120.5h-319q0 -78 24.5 -122.5t64 -62.5t82.5 -18q39 0 69 8t55 19v-35q-31 -18 -71 -32.5t-86 -14.5zM109 276h234q-3 45 -19.5 73t-39 42.5t-45 20t-37.5 5.5
q-34 -16 -59.5 -53.5t-33.5 -87.5z" />
    <glyph glyph-name="f" unicode="f" horiz-adv-x="333" 
d="M103 0v416l-82 16v20h83q4 68 27.5 122.5t65 86t100.5 31.5q18 0 38 -3.5t38 -8.5l-10 -65q-15 8 -36.5 15t-41 11t-31.5 4q-19 -10 -31.5 -33.5t-20 -53t-11 -58t-4.5 -48.5h121v-36h-121v-416h-84z" />
    <glyph glyph-name="g" unicode="g" horiz-adv-x="490" 
d="M199 -222q-48 0 -87.5 12t-62.5 36.5t-23 61.5q0 29 17.5 59.5t64.5 51.5q-22 8 -34 24t-12 41t20.5 50.5t51.5 49.5q-33 17 -54 50t-21 81q0 47 17 79t44 52t58.5 29t60.5 9q26 0 50.5 -8t43.5 -19l88 25l20 -43l-62 -31q9 -16 14 -34.5t5 -41.5q0 -47 -17.5 -79
t-45.5 -51t-60 -27.5t-61 -8.5q-7 0 -14 0.5t-14 1.5q-9 -3 -22 -11.5t-22.5 -20.5t-9.5 -25q0 -22 31.5 -28t89.5 -6q89 0 142.5 -16.5t53.5 -69.5q0 -47 -32.5 -91.5t-88.5 -73t-129 -28.5zM227 177q92 0 92 125q0 35 -12.5 64t-33.5 47t-46 18q-45 0 -68.5 -35.5
t-23.5 -93.5q0 -52 27 -88.5t65 -36.5zM215 -176q60 0 104.5 23t69.5 55.5t25 59.5q-20 8 -49 13t-58.5 6.5t-52.5 1.5q-32 0 -59.5 1t-49.5 5q-14 -12 -29 -35t-15 -49q0 -34 26.5 -57.5t87.5 -23.5z" />
    <glyph glyph-name="h" unicode="h" horiz-adv-x="503" 
d="M76 0v683h81v-295q37 35 75 54.5t82 19.5q24 0 51.5 -12t47 -44.5t19.5 -94.5v-311h-84v301q0 47 -16.5 72.5t-61.5 25.5q-22 0 -51.5 -12.5t-58.5 -40.5v-346h-84z" />
    <glyph glyph-name="i" unicode="i" horiz-adv-x="233" 
d="M75 0v452h83v-452h-83zM116 541q-22 0 -36.5 16t-14.5 36q0 22 14.5 37t36.5 15q21 0 36.5 -15t15.5 -37q0 -20 -15.5 -36t-36.5 -16z" />
    <glyph glyph-name="j" unicode="j" horiz-adv-x="235" 
d="M-34 -223q-18 0 -38 4t-38 8l10 65q16 -8 37 -15t41 -11t31 -4q19 10 32 33.5t20.5 53t10.5 58t3 48.5v435h85l-1 -435q0 -68 -23.5 -122.5t-67 -86t-102.5 -31.5zM117 541q-22 0 -36.5 16t-14.5 36q0 22 14.5 37t36.5 15q21 0 36.5 -15t15.5 -37q0 -20 -15.5 -36
t-36.5 -16z" />
    <glyph glyph-name="k" unicode="k" horiz-adv-x="493" 
d="M371 -13l-212 264v-251h-84v683h84v-423l231 192h66l-235 -178l250 -274z" />
    <glyph glyph-name="l" unicode="l" horiz-adv-x="234" 
d="M75 0v683h84v-683h-84z" />
    <glyph glyph-name="m" unicode="m" horiz-adv-x="778" 
d="M83 0v314q0 35 -9.5 56.5t-21.5 34t-20 18.5l51 38l80 -73q43 36 79 56t76 20q50 0 75 -24.5t33 -56.5q11 12 33.5 31.5t55.5 34.5t73 15q39 0 62.5 -17t35.5 -44.5t16 -58.5t4 -59v-285h-84v293q0 26 -3.5 51.5t-18.5 42.5t-52 17q-31 0 -64 -17.5t-47 -39.5v-347h-85
v298q0 50 -15 78t-54 28q-27 0 -54 -13.5t-44.5 -28t-17.5 -17.5v-345h-84z" />
    <glyph glyph-name="n" unicode="n" 
d="M80 0v314q0 35 -9.5 56.5t-21.5 34t-20 18.5l51 38l82 -73q37 35 69.5 55.5t76.5 20.5q23 0 50.5 -12t47.5 -44.5t20 -94.5v-313h-85v303q0 47 -16.5 72.5t-60.5 25.5q-43 0 -99 -56v-345h-85z" />
    <glyph glyph-name="o" unicode="o" 
d="M229 -12q-56 0 -102 26t-73 76.5t-27 122.5q0 71 22.5 119t59 77t78.5 42t81 13q57 0 103 -26t73 -76t27 -123q0 -71 -23 -119t-59.5 -77t-78.5 -42t-81 -13zM248 22q35 0 60 19t40.5 49.5t23 65.5t7.5 68q0 55 -13.5 100.5t-45 73.5t-86.5 28q-60 -23 -88 -80t-28 -122
q0 -53 13 -99.5t41.5 -74.5t75.5 -28z" />
    <glyph glyph-name="p" unicode="p" 
d="M75 -212v529q0 35 -9.5 56.5t-21.5 34t-21 18.5l52 38l85 -76q37 35 69.5 55.5t76.5 20.5q23 0 51.5 -10.5t56 -37t45 -74.5t17.5 -123q0 -37 -11.5 -78t-34.5 -77t-57 -58.5t-79 -22.5q-29 0 -62.5 11t-71.5 36v-242h-85zM267 31q56 1 87 50t31 126q0 86 -26 142t-63 68
q-29 -3 -54 -16t-43.5 -28.5t-28.5 -28.5t-10 -17v-268q59 -28 107 -28z" />
    <glyph glyph-name="q" unicode="q" 
d="M341 -212v268q-33 -37 -71.5 -55t-76.5 -18q-45 0 -84 26t-63 78t-24 130q0 69 30 125t81 89t112 33q62 0 126 -41l54 39v-674h-84zM204 29q39 3 70 19t49 33t18 24v290q-4 3 -31 10.5t-62 7.5q-62 0 -101 -49.5t-39 -130.5q0 -88 26.5 -140.5t69.5 -63.5z" />
    <glyph glyph-name="r" unicode="r" horiz-adv-x="318" 
d="M64 0v452h58l23 -84q13 22 36.5 44t54 38.5t62.5 21.5l10 -69q-26 0 -56 -11t-57.5 -28t-46.5 -35v-329h-84z" />
    <glyph glyph-name="s" unicode="s" horiz-adv-x="372" 
d="M168 -12q-44 0 -82.5 13t-57.5 23v38q12 -6 33.5 -14t47 -14t48.5 -6q53 0 76 24t23 49q0 30 -22 51t-54.5 38.5t-65.5 37.5t-55 47.5t-22 68.5q0 27 13.5 54.5t44 46.5t82.5 19q53 0 87.5 -9.5t51.5 -16.5l-10 -66q-40 22 -76 34t-61 16q-27 0 -43 -20t-16 -42
q0 -29 23 -49.5t57 -38.5t67.5 -38t56.5 -47t23 -68q0 -54 -43.5 -92.5t-125.5 -38.5z" />
    <glyph glyph-name="t" unicode="t" horiz-adv-x="329" 
d="M188 -12q-41 0 -69 24t-28 81v323l-81 16v20h81v36l84 61v-97h119v-36h-119v-328q0 -28 11.5 -44t43.5 -16q14 0 31 4.5t33 10.5v-28q-22 -10 -49.5 -18.5t-56.5 -8.5z" />
    <glyph glyph-name="u" unicode="u" horiz-adv-x="480" 
d="M169 -12q-23 0 -50.5 11.5t-47.5 44t-20 93.5v315h85v-320q0 -46 16.5 -71.5t60.5 -25.5q23 0 49 18t50 46v353h85v-318q0 -34 9.5 -55.5t22 -34t20.5 -19.5l-52 -37l-81 73q-37 -35 -70 -54t-77 -19z" />
    <glyph glyph-name="v" unicode="v" horiz-adv-x="415" 
d="M206 -13l-196 465h88l138 -350l131 350h38l-184 -465h-15z" />
    <glyph glyph-name="w" unicode="w" horiz-adv-x="684" 
d="M205 -13l-195 465h92l133 -353l90 246l-45 107h92l133 -353l130 353h39l-183 -465h-16l-132 312l-123 -312h-15z" />
    <glyph glyph-name="x" unicode="x" horiz-adv-x="474" 
d="M30 0l166 211l-163 241h99l114 -182l134 182h49l-164 -203l179 -249h-99l-129 189l-138 -189h-48z" />
    <glyph glyph-name="y" unicode="y" horiz-adv-x="441" 
d="M5 -220l14 73q56 2 95.5 25t66.5 57.5t44 69.5l-203 447h89l153 -339l118 339h38l-171 -467q-22 -60 -59 -106t-84.5 -72t-100.5 -27z" />
    <glyph glyph-name="z" unicode="z" horiz-adv-x="444" 
d="M45 0v30l267 389l-246 -9l-10 42h347v-28l-266 -388l269 11l10 -47h-371z" />
    <glyph glyph-name="braceleft" unicode="{" horiz-adv-x="480" 
d="M314 -182q-73 0 -100.5 34t-27.5 103v208q0 15 -4.5 32.5t-17 31t-38.5 14.5v18q26 1 38.5 14t17 31.5t4.5 32.5v208q0 69 27.5 103t100.5 34q8 0 21 -2t23 -5v-31q-11 5 -28 7.5t-30 2.5q-31 -9 -37.5 -30.5t-6.5 -54.5v-207q0 -49 -22 -73t-59 -39q37 -16 59 -39
t22 -73v-207q0 -33 6.5 -54.5t37.5 -30.5q11 0 28 2.5t30 6.5v-30q-10 -3 -23 -5t-21 -2z" />
    <glyph glyph-name="bar" unicode="|" horiz-adv-x="200" 
d="M67 -218v1000h66v-1000h-66z" />
    <glyph glyph-name="braceright" unicode="}" horiz-adv-x="480" 
d="M167 -182q-8 0 -21 2t-23 5v31q11 -4 28 -7t30 -3q32 9 38 30.5t6 54.5v207q0 50 22 73.5t59 38.5q-37 16 -59 39.5t-22 72.5v207q0 33 -6 54.5t-38 30.5q-11 0 -28 -2.5t-30 -6.5v30q10 3 23 5t21 2q73 0 100.5 -34t27.5 -103v-208q0 -14 4.5 -32t17.5 -31.5t38 -14.5
v-18q-25 0 -38 -13.5t-17.5 -31.5t-4.5 -33v-208q0 -69 -27.5 -103t-100.5 -34z" />
    <glyph glyph-name="asciitilde" unicode="~" horiz-adv-x="541" 
d="M76 183l-36 50q17 32 46 59t79 27q26 0 54.5 -9.5t56.5 -22.5q28 -12 55 -24t47 -12q30 0 50.5 23t37.5 49l36 -50q-22 -31 -50 -58.5t-75 -27.5q-28 0 -52.5 10t-49.5 23q-24 14 -52 24.5t-63 10.5q-33 0 -52.5 -23t-31.5 -49z" />
    <glyph glyph-name="uni00A0" unicode="&#xa0;" horiz-adv-x="250" 
 />
    <glyph glyph-name="exclamdown" unicode="&#xa1;" horiz-adv-x="333" 
d="M149 361q-22 0 -38 15.5t-16 38.5q0 29 19 40t35 11q18 0 36.5 -12t18.5 -39q0 -22 -16 -38t-39 -16zM102 -196l30 495h35l30 -495h-95z" />
    <glyph glyph-name="cent" unicode="&#xa2;" 
d="M264 -87v76q-76 8 -127 64.5t-51 157.5q0 102 49.5 167.5t128.5 78.5v81h34v-77q38 0 73 -9.5t52 -16.5l-20 -56q-31 14 -52.5 22t-52.5 12v-370q5 -1 10 -1h10q35 0 62 8t49 19v-35q-26 -17 -59 -31t-72 -16v-74h-34zM263 52v363q-38 -19 -60 -54.5t-30.5 -73.5
t-8.5 -68q0 -60 28 -104.5t71 -62.5z" />
    <glyph glyph-name="sterling" unicode="&#xa3;" 
d="M56 0v27q32 51 43.5 108t11.5 112q0 20 -2 41l-4 42h-79v38h74q-3 27 -5.5 52.5t-2.5 48.5q0 63 24.5 110.5t67 74t95.5 26.5q40 0 74.5 -10.5t58.5 -20.5l-10 -66q-42 23 -84 40t-74 21q-39 -14 -52 -44.5t-13 -73.5q0 -33 4.5 -72t4.5 -82v-4h141v-38h-143
q-4 -78 -23 -152.5t-54 -130.5q23 -5 46.5 -7.5t46.5 -3.5l226 31l-12 -67h-360z" />
    <glyph glyph-name="currency" unicode="&#xa4;" horiz-adv-x="452" 
d="M46 151l-26 26l92 92q-29 39 -29 88t29 88l-92 92l26 26l92 -92q38 30 88 30t88 -30l92 92l26 -26l-92 -92q29 -39 29 -88t-29 -88l92 -92l-26 -26l-92 92q-39 -29 -88 -29t-88 29zM226 259q39 0 66.5 29.5t27.5 68.5t-27.5 68.5t-66.5 29.5t-66.5 -29.5t-27.5 -68.5
t27.5 -68.5t66.5 -29.5z" />
    <glyph glyph-name="yen" unicode="&#xa5;" 
d="M217 0v204h-160v39h160v3l-42 84h-118v38h99l-145 293h109l165 -379l153 379h50l-125 -293h111v-38h-127l-33 -79v-8h160v-39h-160v-204h-97z" />
    <glyph glyph-name="brokenbar" unicode="&#xa6;" horiz-adv-x="200" 
d="M67 357v350h66v-350h-66zM67 -143v350h66v-350h-66z" />
    <glyph glyph-name="section" unicode="&#xa7;" 
d="M214 -148q-45 0 -84.5 11t-62.5 21v38q13 -7 35.5 -17t48.5 -17.5t51 -7.5q50 0 81 27.5t31 78.5q0 30 -17.5 51.5t-45 39.5t-59 36t-59 39.5t-45 50.5t-17.5 69q0 28 11 56t35.5 50t65.5 30q-32 23 -55 54.5t-23 77.5q0 32 14.5 64t48.5 54t90 22q27 0 65.5 -9t66.5 -22
v-54q-45 20 -89.5 31.5t-88.5 11.5q-20 -10 -30 -27.5t-10 -37.5q0 -31 18.5 -54.5t47.5 -43t61 -39.5t61 -43t47.5 -53t18.5 -70q0 -49 -26 -86.5t-79 -54.5q30 -24 50.5 -54.5t20.5 -72.5q0 -64 -44.5 -107t-133.5 -43zM285 155q29 11 46 36.5t17 62.5q0 38 -28 63t-66 47
q-10 2 -32.5 4t-44.5 2q-19 -10 -29 -27.5t-10 -37.5q0 -34 22 -59t56 -46.5t69 -44.5z" />
    <glyph glyph-name="dieresis" unicode="&#xa8;" horiz-adv-x="333" 
d="M265 541q-21 0 -35.5 14.5t-14.5 35.5t14.5 35.5t35.5 14.5t35.5 -14.5t14.5 -35.5t-14.5 -35.5t-35.5 -14.5zM68 541q-21 0 -35.5 14.5t-14.5 35.5t14.5 35.5t35.5 14.5t35.5 -14.5t14.5 -35.5t-14.5 -35.5t-35.5 -14.5z" />
    <glyph glyph-name="copyright" unicode="&#xa9;" horiz-adv-x="760" 
d="M382 -14q-73 0 -135.5 26.5t-109.5 74t-73 109.5t-26 134t26 134.5t73 110.5t109.5 75t135.5 27q72 0 133.5 -27t108 -75t72.5 -110.5t26 -134.5t-26 -134t-72.5 -109.5t-108 -74t-133.5 -26.5zM382 28q59 0 111 24.5t91 66.5t61 96.5t22 114.5q0 61 -22 115.5t-60.5 97
t-90.5 67t-112 24.5q-61 0 -113.5 -24.5t-92 -67t-61.5 -97.5t-22 -115t22 -114.5t61.5 -96.5t92 -66.5t113.5 -24.5zM396 108q-64 0 -119 23.5t-88.5 71.5t-33.5 120q0 63 22.5 108.5t60 74t82 42.5t87.5 14q32 0 66.5 -7.5t51.5 -13.5l-9 -59q-35 15 -72.5 26.5
t-74.5 12.5q-62 -15 -97.5 -66t-35.5 -122q0 -92 49 -140.5t123 -48.5q32 0 67 11t59 33v-51q-32 -17 -71 -23t-67 -6z" />
    <glyph glyph-name="ordfeminine" unicode="&#xaa;" horiz-adv-x="262" 
d="M212 392l-47 42q-19 -18 -39 -29t-43 -11q-25 0 -45.5 17.5t-20.5 48.5t24.5 49t57.5 26.5t60 10.5v48q0 42 -48 42q-14 0 -33 -4t-45 -13l-8 24q11 8 40.5 21t60.5 13q46 0 64.5 -17t22.5 -40t4 -41v-96q0 -28 13 -42t21 -19zM105 432q19 5 36.5 18t17.5 18v53
q-37 -4 -59 -17.5t-22 -28.5q0 -16 7.5 -27t19.5 -16z" />
    <glyph glyph-name="guillemotleft" unicode="&#xab;" 
d="M445 33l-211 194l211 189q10 0 10 -11l-128 -180l129 -181q0 -11 -11 -11zM253 33l-211 194l211 189q10 0 10 -11l-128 -180l129 -181q0 -11 -11 -11z" />
    <glyph glyph-name="logicalnot" unicode="&#xac;" horiz-adv-x="564" 
d="M447 124v188h-388v58h446v-246h-58z" />
    <glyph glyph-name="registered" unicode="&#xae;" horiz-adv-x="760" 
d="M382 -14q-73 0 -135.5 26.5t-109.5 74t-73 109.5t-26 134t26 134.5t73 110.5t109.5 75t135.5 27q72 0 133.5 -27t108 -75t72.5 -110.5t26 -134.5t-26 -134t-72.5 -109.5t-108 -74t-133.5 -26.5zM382 28q59 0 111 24.5t91 66.5t61 96.5t22 114.5q0 61 -22 115.5t-60.5 97
t-90.5 67t-112 24.5q-61 0 -113.5 -24.5t-92 -67t-61.5 -97.5t-22 -115t22 -114.5t61.5 -96.5t92 -66.5t113.5 -24.5zM469 107l-110 211h-38v-201h-77v435h145q65 0 109 -29.5t44 -85.5q0 -45 -32.5 -73t-83.5 -39l133 -207zM321 350h34q43 0 66.5 12.5t32.5 31.5t9 40
q0 4 -3.5 20t-17.5 34t-45 27q-16 0 -37.5 -3t-38.5 -7v-155z" />
    <glyph glyph-name="macron" unicode="&#xaf;" horiz-adv-x="333" 
d="M11 547v54h311v-54h-311z" />
    <glyph glyph-name="degree" unicode="&#xb0;" horiz-adv-x="400" 
d="M200 390q-40 0 -72.5 19t-51.5 51.5t-19 72.5t19 72.5t51.5 52t72.5 19.5t72.5 -19.5t51.5 -52t19 -72.5t-19 -72.5t-51.5 -51.5t-72.5 -19zM200 424q29 0 52.5 15t37.5 40t14 54t-14 54t-37.5 40t-52.5 15t-52.5 -15t-37.5 -40t-14 -54t14 -54t37.5 -40t52.5 -15z" />
    <glyph glyph-name="plusminus" unicode="&#xb1;" horiz-adv-x="564" 
d="M253 105v195h-194v58h194v195h58v-195h194v-58h-194v-195h-58zM59 0v58h446v-58h-446z" />
    <glyph glyph-name="uni00B2" unicode="&#xb2;" horiz-adv-x="300" 
d="M12 269v34q32 19 67 48.5t66 64.5t50 71t19 67q0 27 -13.5 48.5t-43.5 33.5q-23 0 -54 -5.5t-61 -14.5l-14 44q16 5 47.5 10t53.5 5q57 0 89 -18t44.5 -45.5t12.5 -56.5q0 -30 -21 -64.5t-53 -69t-67 -63.5t-63 -48v-5l213 11v-47h-272z" />
    <glyph glyph-name="uni00B3" unicode="&#xb3;" horiz-adv-x="300" 
d="M126 265q-31 0 -52.5 6t-41.5 14v37q2 -1 5.5 -2t7.5 -3q12 -4 30 -9t38 -5q34 0 58.5 19.5t24.5 60.5q0 31 -27 57t-98 26l-1 25q65 4 87 27.5t22 52.5q0 9 -8 30t-41 34q-21 0 -46.5 -5.5t-51.5 -13.5v48q14 4 36 8.5t41 4.5q57 0 95 -26.5t38 -76.5q0 -31 -18.5 -54
t-50.5 -37q45 -13 67 -39.5t22 -56.5q0 -41 -23 -68.5t-55 -40.5t-58 -13z" />
    <glyph glyph-name="acute" unicode="&#xb4;" horiz-adv-x="333" 
d="M93 507l172 188l56 -50l-188 -138h-40z" />
    <glyph glyph-name="uni00B5" unicode="&#xb5;" horiz-adv-x="510" 
d="M79 -210v662h85v-320q0 -46 16.5 -71.5t60.5 -25.5q23 0 45.5 21.5t33.5 42.5v353h85v-318q0 -34 9.5 -55.5t22 -34t20.5 -19.5l-52 -37l-81 73q-28 -35 -55.5 -54.5t-71.5 -19.5q-24 0 -45.5 12t-40.5 45h-4q3 -40 10.5 -79t16 -70.5t15 -50l6.5 -18.5
q-10 -15 -30 -25.5t-46 -10.5z" />
    <glyph glyph-name="paragraph" unicode="&#xb6;" horiz-adv-x="453" 
d="M172 -154v477q-100 0 -147 41t-47 135q0 74 48.5 118.5t160.5 44.5h175v-816h-66v794h-58v-794h-66zM172 345v295q-60 -4 -89 -37t-29 -105q0 -64 14.5 -96t41 -43t62.5 -14z" />
    <glyph glyph-name="periodcentered" unicode="&#xb7;" horiz-adv-x="250" 
d="M125 199q-16 0 -35.5 13t-19.5 41q0 24 16.5 40.5t38.5 16.5q23 0 39.5 -17t16.5 -40q0 -28 -20 -41t-36 -13z" />
    <glyph glyph-name="cedilla" unicode="&#xb8;" horiz-adv-x="333" 
d="M140 -215q-19 0 -45 4.5t-43 11.5l14 31q13 -5 34.5 -8.5t27.5 -3.5q24 0 41 11.5t17 27.5q-12 23 -35 32t-52 9l40 100h35l-25 -65q31 0 63 -17t49 -50q0 -34 -35.5 -58.5t-85.5 -24.5z" />
    <glyph glyph-name="uni00B9" unicode="&#xb9;" horiz-adv-x="300" 
d="M22 269v44l99 -7v306l-94 -48l-23 40l174 71h3v-369l99 7v-44h-258z" />
    <glyph glyph-name="ordmasculine" unicode="&#xba;" horiz-adv-x="304" 
d="M140 393q-52 0 -88.5 35t-36.5 99q0 57 23.5 90t58 46.5t66.5 13.5q52 0 88 -34.5t36 -99.5q0 -57 -23.5 -89.5t-57.5 -46.5t-66 -14zM150 425q73 0 73 109q0 46 -21 78t-52 32q-36 0 -54 -30t-18 -80q0 -45 21 -77t51 -32z" />
    <glyph glyph-name="guillemotright" unicode="&#xbb;" 
d="M249 32q-10 0 -10 11l128 180l-129 181q0 11 11 11l211 -194zM59 32q-10 0 -10 11l128 180l-129 181q0 11 11 11l211 -194z" />
    <glyph glyph-name="onequarter" unicode="&#xbc;" horiz-adv-x="799" 
d="M159 301v307l-81 -41l-29 48l169 72h9v-386h-68zM200 -14l353 691h46l-350 -691h-49zM637 0v76h-183v26l186 276h64v-258h53v-44h-53v-76h-67zM510 120h127v193z" />
    <glyph glyph-name="onehalf" unicode="&#xbd;" horiz-adv-x="799" 
d="M159 301v307l-81 -41l-29 48l169 72h9v-386h-68zM200 -14l353 691h46l-350 -691h-49zM480 0v41q29 18 61 44.5t60 58t45.5 63.5t17.5 59q0 22 -11.5 40t-37.5 28q-19 -1 -48 -7t-58 -14l-16 54q11 4 29 7.5t37.5 6t33.5 2.5q54 0 84.5 -17.5t43 -44t12.5 -55.5
q0 -25 -16 -53.5t-41.5 -57.5t-54.5 -55t-55 -46v-5l176 8v-57h-262z" />
    <glyph glyph-name="threequarters" unicode="&#xbe;" horiz-adv-x="799" 
d="M153 291q-35 0 -67 7t-47 11l17 48q24 -10 46.5 -18t43.5 -12q31 1 55 20.5t24 56.5q0 29 -26.5 53.5t-94.5 24.5v26q62 4 84 25t22 48q0 8 -9.5 27.5t-37.5 32.5q-17 0 -40.5 -5t-52.5 -13l-17 47q17 5 43.5 9.5t45.5 4.5q56 0 96.5 -25.5t40.5 -74.5q0 -25 -19 -48
t-51 -37q47 -13 69.5 -37t22.5 -54q0 -40 -24 -66t-58.5 -38.5t-65.5 -12.5zM200 -14l353 691h46l-350 -691h-49zM607 0v76h-183v26l186 276h64v-258h53v-44h-53v-76h-67zM480 120h127v193z" />
    <glyph glyph-name="questiondown" unicode="&#xbf;" horiz-adv-x="444" 
d="M250 361q-23 0 -39 16t-16 38q0 27 18.5 39.5t36.5 12.5q16 0 35 -11.5t19 -40.5q0 -23 -16 -38.5t-38 -15.5zM253 -196q-81 0 -126.5 25.5t-64 65t-18.5 81.5q0 35 17.5 76t47 84.5t64.5 85t71 77.5l29 -23q-41 -44 -74 -94.5t-52.5 -101t-19.5 -95.5q0 -42 20 -74.5
t66 -50.5q29 0 70.5 6.5t72.5 15.5v-63q-20 -5 -48.5 -10t-54.5 -5z" />
    <glyph glyph-name="Agrave" unicode="&#xc0;" horiz-adv-x="629" 
d="M10 0l297 678h15l297 -678h-109l-75 180h-297l-74 -180h-54zM153 218h266l-132 324zM389 717l-188 138l56 50l172 -188h-40z" />
    <glyph glyph-name="Aacute" unicode="&#xc1;" horiz-adv-x="629" 
d="M10 0l297 678h15l297 -678h-109l-75 180h-297l-74 -180h-54zM153 218h266l-132 324zM218 717l172 188l56 -50l-188 -138h-40z" />
    <glyph glyph-name="Acircumflex" unicode="&#xc2;" horiz-adv-x="629" 
d="M10 0l297 678h15l297 -678h-109l-75 180h-297l-74 -180h-54zM153 218h266l-132 324zM165 718l125 167h48l126 -167h-40l-110 93l-109 -93h-40z" />
    <glyph glyph-name="Atilde" unicode="&#xc3;" horiz-adv-x="629" 
d="M10 0l297 678h15l297 -678h-109l-75 180h-297l-74 -180h-54zM153 218h266l-132 324zM183 740l-27 15q11 26 35.5 51t66.5 38q20 0 46.5 -10t50.5 -20.5t34 -10.5q20 0 32 12t25 31l27 -15q-10 -25 -35 -50t-67 -39q-19 0 -46 10.5t-51 20.5t-34 10q-19 0 -31 -12t-26 -31
z" />
    <glyph glyph-name="Adieresis" unicode="&#xc4;" horiz-adv-x="629" 
d="M10 0l297 678h15l297 -678h-109l-75 180h-297l-74 -180h-54zM153 218h266l-132 324zM413 751q-21 0 -35.5 14.5t-14.5 35.5t14.5 35.5t35.5 14.5t35.5 -14.5t14.5 -35.5t-14.5 -35.5t-35.5 -14.5zM216 751q-21 0 -35.5 14.5t-14.5 35.5t14.5 35.5t35.5 14.5t35.5 -14.5
t14.5 -35.5t-14.5 -35.5t-35.5 -14.5z" />
    <glyph glyph-name="Aring" unicode="&#xc5;" horiz-adv-x="629" 
d="M10 0l297 678h15l297 -678h-109l-75 180h-297l-74 -180h-54zM153 218h266l-132 324zM314 722q-43 0 -71 29.5t-28 69.5q0 41 28.5 70.5t70.5 29.5q41 0 70.5 -29.5t29.5 -70.5t-29.5 -70t-70.5 -29zM313 756q29 0 48 19t19 46t-19 46.5t-47 19.5q-22 0 -36.5 -11
t-21.5 -26.5t-7 -27.5t6.5 -27.5t21 -27t36.5 -11.5z" />
    <glyph glyph-name="AE" unicode="&#xc6;" horiz-adv-x="862" 
d="M10 0l365 661h416v-67l-211 31q-29 0 -54 -4.5t-54 -12.5v-242h237v-38h-237v-292l325 31v-67h-422v180h-217l-94 -180h-54zM178 218h197v375z" />
    <glyph glyph-name="Ccedilla" unicode="&#xc7;" horiz-adv-x="632" 
d="M395 -12q-72 0 -138 19.5t-117.5 60t-81.5 101.5t-30 144q0 96 34.5 164.5t91.5 112t125 64t134 20.5q31 0 65 -5t63 -12t45 -13l-10 -68q-54 23 -106.5 40t-117.5 17q-106 -24 -162 -104.5t-56 -199.5q0 -100 36.5 -168.5t99.5 -103t144 -34.5q53 0 105 13.5t83 40.5
v-55q-30 -12 -67 -19.5t-73.5 -11t-66.5 -3.5zM299 -215q-19 0 -45 4.5t-43 11.5l14 31q13 -5 34.5 -8.5t27.5 -3.5q24 0 41 11.5t17 27.5q-12 23 -35 32t-52 9l40 100h35l-25 -65q31 0 63 -17t49 -50q0 -34 -35.5 -58.5t-85.5 -24.5z" />
    <glyph glyph-name="Egrave" unicode="&#xc8;" horiz-adv-x="562" 
d="M90 0v662h401l-10 -67l-186 31q-29 0 -54 -4.5t-54 -12.5v-243h222v-38h-222v-292l310 31l-10 -67h-397zM355 717l-188 138l56 50l172 -188h-40z" />
    <glyph glyph-name="Eacute" unicode="&#xc9;" horiz-adv-x="562" 
d="M90 0v662h401l-10 -67l-186 31q-29 0 -54 -4.5t-54 -12.5v-243h222v-38h-222v-292l310 31l-10 -67h-397zM184 717l172 188l56 -50l-188 -138h-40z" />
    <glyph glyph-name="Ecircumflex" unicode="&#xca;" horiz-adv-x="562" 
d="M90 0v662h401l-10 -67l-186 31q-29 0 -54 -4.5t-54 -12.5v-243h222v-38h-222v-292l310 31l-10 -67h-397zM131 718l125 167h48l126 -167h-40l-110 93l-109 -93h-40z" />
    <glyph glyph-name="Edieresis" unicode="&#xcb;" horiz-adv-x="562" 
d="M90 0v662h401l-10 -67l-186 31q-29 0 -54 -4.5t-54 -12.5v-243h222v-38h-222v-292l310 31l-10 -67h-397zM379 751q-21 0 -35.5 14.5t-14.5 35.5t14.5 35.5t35.5 14.5t35.5 -14.5t14.5 -35.5t-14.5 -35.5t-35.5 -14.5zM182 751q-21 0 -35.5 14.5t-14.5 35.5t14.5 35.5
t35.5 14.5t35.5 -14.5t14.5 -35.5t-14.5 -35.5t-35.5 -14.5z" />
    <glyph glyph-name="Igrave" unicode="&#xcc;" horiz-adv-x="272" 
d="M90 0v662h92v-662h-92zM210 717l-188 138l56 50l172 -188h-40z" />
    <glyph glyph-name="Iacute" unicode="&#xcd;" horiz-adv-x="272" 
d="M90 0v662h92v-662h-92zM39 717l172 188l56 -50l-188 -138h-40z" />
    <glyph glyph-name="Icircumflex" unicode="&#xce;" horiz-adv-x="272" 
d="M90 0v662h92v-662h-92zM-14 718l125 167h48l126 -167h-40l-110 93l-109 -93h-40z" />
    <glyph glyph-name="Idieresis" unicode="&#xcf;" horiz-adv-x="272" 
d="M90 0v662h92v-662h-92zM234 751q-21 0 -35.5 14.5t-14.5 35.5t14.5 35.5t35.5 14.5t35.5 -14.5t14.5 -35.5t-14.5 -35.5t-35.5 -14.5zM37 751q-21 0 -35.5 14.5t-14.5 35.5t14.5 35.5t35.5 14.5t35.5 -14.5t14.5 -35.5t-14.5 -35.5t-35.5 -14.5z" />
    <glyph glyph-name="Eth" unicode="&#xd0;" horiz-adv-x="708" 
d="M90 0v662h189q67 0 135 -18.5t125 -60t91.5 -108t34.5 -162.5q0 -83 -30 -142.5t-81.5 -97t-117.5 -55.5t-138 -18h-208zM278 34q81 0 144.5 32t100 97.5t36.5 165.5q0 77 -28.5 138t-78 102t-112.5 57q-35 0 -79.5 -6t-72.5 -15v-562q14 -4 40 -6.5t50 -2.5zM0 325v49
h390v-49h-390z" />
    <glyph glyph-name="Ntilde" unicode="&#xd1;" horiz-adv-x="683" 
d="M576 -11l-438 548h-4v-537h-44v662h74l381 -481h4v481h44v-673h-17zM220 740l-27 15q11 26 35.5 51t66.5 38q20 0 46.5 -10t50.5 -20.5t34 -10.5q20 0 32 12t25 31l27 -15q-10 -25 -35 -50t-67 -39q-19 0 -46 10.5t-51 20.5t-34 10q-19 0 -31 -12t-26 -31z" />
    <glyph glyph-name="Ograve" unicode="&#xd2;" horiz-adv-x="725" 
d="M333 -12q-83 0 -151 37.5t-108 110t-40 177.5q0 82 22 143t59.5 102.5t84 67t96 37t95.5 11.5q84 0 152 -37t108 -109t40 -177q0 -82 -22 -143t-60 -103t-84.5 -68t-96 -37.5t-95.5 -11.5zM362 21q60 0 102.5 29t69 75t39 100t12.5 103q0 62 -12.5 117.5t-41 97.5t-76 66
t-118.5 24q-67 -23 -111 -70t-65 -108t-21 -127q0 -61 12.5 -116.5t38.5 -98.5t68.5 -67.5t102.5 -24.5zM437 717l-188 138l56 50l172 -188h-40z" />
    <glyph glyph-name="Oacute" unicode="&#xd3;" horiz-adv-x="725" 
d="M333 -12q-83 0 -151 37.5t-108 110t-40 177.5q0 82 22 143t59.5 102.5t84 67t96 37t95.5 11.5q84 0 152 -37t108 -109t40 -177q0 -82 -22 -143t-60 -103t-84.5 -68t-96 -37.5t-95.5 -11.5zM362 21q60 0 102.5 29t69 75t39 100t12.5 103q0 62 -12.5 117.5t-41 97.5t-76 66
t-118.5 24q-67 -23 -111 -70t-65 -108t-21 -127q0 -61 12.5 -116.5t38.5 -98.5t68.5 -67.5t102.5 -24.5zM266 717l172 188l56 -50l-188 -138h-40z" />
    <glyph glyph-name="Ocircumflex" unicode="&#xd4;" horiz-adv-x="725" 
d="M333 -12q-83 0 -151 37.5t-108 110t-40 177.5q0 82 22 143t59.5 102.5t84 67t96 37t95.5 11.5q84 0 152 -37t108 -109t40 -177q0 -82 -22 -143t-60 -103t-84.5 -68t-96 -37.5t-95.5 -11.5zM362 21q60 0 102.5 29t69 75t39 100t12.5 103q0 62 -12.5 117.5t-41 97.5t-76 66
t-118.5 24q-67 -23 -111 -70t-65 -108t-21 -127q0 -61 12.5 -116.5t38.5 -98.5t68.5 -67.5t102.5 -24.5zM213 718l125 167h48l126 -167h-40l-110 93l-109 -93h-40z" />
    <glyph glyph-name="Otilde" unicode="&#xd5;" horiz-adv-x="725" 
d="M333 -12q-83 0 -151 37.5t-108 110t-40 177.5q0 82 22 143t59.5 102.5t84 67t96 37t95.5 11.5q84 0 152 -37t108 -109t40 -177q0 -82 -22 -143t-60 -103t-84.5 -68t-96 -37.5t-95.5 -11.5zM362 21q60 0 102.5 29t69 75t39 100t12.5 103q0 62 -12.5 117.5t-41 97.5t-76 66
t-118.5 24q-67 -23 -111 -70t-65 -108t-21 -127q0 -61 12.5 -116.5t38.5 -98.5t68.5 -67.5t102.5 -24.5zM231 740l-27 15q11 26 35.5 51t66.5 38q20 0 46.5 -10t50.5 -20.5t34 -10.5q20 0 32 12t25 31l27 -15q-10 -25 -35 -50t-67 -39q-19 0 -46 10.5t-51 20.5t-34 10
q-19 0 -31 -12t-26 -31z" />
    <glyph glyph-name="Odieresis" unicode="&#xd6;" horiz-adv-x="725" 
d="M333 -12q-83 0 -151 37.5t-108 110t-40 177.5q0 82 22 143t59.5 102.5t84 67t96 37t95.5 11.5q84 0 152 -37t108 -109t40 -177q0 -82 -22 -143t-60 -103t-84.5 -68t-96 -37.5t-95.5 -11.5zM362 21q60 0 102.5 29t69 75t39 100t12.5 103q0 62 -12.5 117.5t-41 97.5t-76 66
t-118.5 24q-67 -23 -111 -70t-65 -108t-21 -127q0 -61 12.5 -116.5t38.5 -98.5t68.5 -67.5t102.5 -24.5zM461 751q-21 0 -35.5 14.5t-14.5 35.5t14.5 35.5t35.5 14.5t35.5 -14.5t14.5 -35.5t-14.5 -35.5t-35.5 -14.5zM264 751q-21 0 -35.5 14.5t-14.5 35.5t14.5 35.5
t35.5 14.5t35.5 -14.5t14.5 -35.5t-14.5 -35.5t-35.5 -14.5z" />
    <glyph glyph-name="multiply" unicode="&#xd7;" horiz-adv-x="564" 
d="M108 36l-42 42l174 175l-174 174l42 42l174 -174l175 174l42 -42l-174 -174l174 -175l-42 -42l-175 174z" />
    <glyph glyph-name="Oslash" unicode="&#xd8;" horiz-adv-x="725" 
d="M163 -67l37 83q-74 35 -120 110t-46 187q0 82 22 143t59.5 102.5t84 67t96 37t95.5 11.5q50 0 95 -13l30 67h46l-36 -82q74 -35 119.5 -109t45.5 -186q0 -82 -22 -143t-60 -103t-84.5 -68t-96 -37.5t-95.5 -11.5q-48 0 -91 13l-30 -68h-49zM140 328q0 -78 20 -146
t65 -110l237 533q-25 14 -56 21t-69 7q-67 -23 -111 -70t-65 -108t-21 -127zM362 21q60 0 102.5 29t69 75t39 100t12.5 103q0 78 -20 144.5t-68 108.5l-236 -536q44 -24 101 -24z" />
    <glyph glyph-name="Ugrave" unicode="&#xd9;" horiz-adv-x="657" 
d="M323 -12q-74 0 -121 20.5t-73.5 52t-37.5 67t-13.5 66.5t-2.5 49v419h102v-427q0 -19 1.5 -45.5t9.5 -53.5t26.5 -51t51.5 -38.5t85 -14.5q86 0 136.5 46t50.5 154v430h44v-406q0 -24 -2.5 -58t-14 -70.5t-39 -68.5t-76.5 -51.5t-127 -19.5zM423 717l-188 138l56 50
l172 -188h-40z" />
    <glyph glyph-name="Uacute" unicode="&#xda;" horiz-adv-x="657" 
d="M323 -12q-74 0 -121 20.5t-73.5 52t-37.5 67t-13.5 66.5t-2.5 49v419h102v-427q0 -19 1.5 -45.5t9.5 -53.5t26.5 -51t51.5 -38.5t85 -14.5q86 0 136.5 46t50.5 154v430h44v-406q0 -24 -2.5 -58t-14 -70.5t-39 -68.5t-76.5 -51.5t-127 -19.5zM252 717l172 188l56 -50
l-188 -138h-40z" />
    <glyph glyph-name="Ucircumflex" unicode="&#xdb;" horiz-adv-x="657" 
d="M323 -12q-74 0 -121 20.5t-73.5 52t-37.5 67t-13.5 66.5t-2.5 49v419h102v-427q0 -19 1.5 -45.5t9.5 -53.5t26.5 -51t51.5 -38.5t85 -14.5q86 0 136.5 46t50.5 154v430h44v-406q0 -24 -2.5 -58t-14 -70.5t-39 -68.5t-76.5 -51.5t-127 -19.5zM199 718l125 167h48l126 -167
h-40l-110 93l-109 -93h-40z" />
    <glyph glyph-name="Udieresis" unicode="&#xdc;" horiz-adv-x="657" 
d="M323 -12q-74 0 -121 20.5t-73.5 52t-37.5 67t-13.5 66.5t-2.5 49v419h102v-427q0 -19 1.5 -45.5t9.5 -53.5t26.5 -51t51.5 -38.5t85 -14.5q86 0 136.5 46t50.5 154v430h44v-406q0 -24 -2.5 -58t-14 -70.5t-39 -68.5t-76.5 -51.5t-127 -19.5zM447 751q-21 0 -35.5 14.5
t-14.5 35.5t14.5 35.5t35.5 14.5t35.5 -14.5t14.5 -35.5t-14.5 -35.5t-35.5 -14.5zM250 751q-21 0 -35.5 14.5t-14.5 35.5t14.5 35.5t35.5 14.5t35.5 -14.5t14.5 -35.5t-14.5 -35.5t-35.5 -14.5z" />
    <glyph glyph-name="Yacute" unicode="&#xdd;" horiz-adv-x="557" 
d="M246 0v246l-226 416h109l185 -380l173 380h50l-194 -411v-251h-97zM182 717l172 188l56 -50l-188 -138h-40z" />
    <glyph glyph-name="Thorn" unicode="&#xde;" horiz-adv-x="556" 
d="M90 0v662h97v-130h118q66 0 118 -20.5t82 -58.5t30 -93q0 -65 -33 -108.5t-92 -65t-137 -21.5h-86v-165h-97zM187 194h89q51 0 82 18t47 45t21.5 54t5.5 44q0 6 -2.5 24t-13 41t-33 44t-62.5 32q-31 0 -70 -5t-64 -12v-285z" />
    <glyph glyph-name="germandbls" unicode="&#xdf;" horiz-adv-x="579" 
d="M343 -12q-43 0 -78.5 9.5t-56.5 16.5l23 64q26 -13 59.5 -27t52.5 -21q31 5 59 21.5t46 48t18 80.5q0 38 -15 65t-37 46.5t-44 33.5t-37 26.5t-15 25.5q0 16 13.5 36t32 42.5t32 46.5t13.5 47q0 29 -23 52.5t-57 33.5q-32 0 -67 -7.5t-77 -20.5v-607h-82v416l-83 16v20
h84v203q23 7 75 17.5t120 10.5q74 0 117 -16.5t62 -44t19 -59.5t-18 -62.5t-46 -59t-58 -55.5q13 -7 42 -24t60.5 -43.5t53.5 -61.5t22 -77q0 -51 -19.5 -87.5t-51 -59.5t-68 -34t-71.5 -11z" />
    <glyph glyph-name="agrave" unicode="&#xe0;" horiz-adv-x="444" 
d="M367 -13l-81 73q-36 -33 -70.5 -52.5t-75.5 -19.5t-74 27t-33 77q0 39 26 65.5t66 42.5t83 24t77 10v94q0 83 -96 83q-25 0 -57.5 -5.5t-72.5 -18.5l-9 25q11 9 37 21t60 21.5t69 9.5q57 0 88 -16.5t44 -42t16 -53t3 -49.5v-170q0 -34 9.5 -56t22 -34t20.5 -18zM178 34
q24 5 48.5 19.5t41.5 30t17 22.5v103q-75 -5 -119.5 -32.5t-44.5 -58.5t16.5 -53.5t40.5 -30.5zM302 507l-188 138l56 50l172 -188h-40z" />
    <glyph glyph-name="aacute" unicode="&#xe1;" horiz-adv-x="444" 
d="M367 -13l-81 73q-36 -33 -70.5 -52.5t-75.5 -19.5t-74 27t-33 77q0 39 26 65.5t66 42.5t83 24t77 10v94q0 83 -96 83q-25 0 -57.5 -5.5t-72.5 -18.5l-9 25q11 9 37 21t60 21.5t69 9.5q57 0 88 -16.5t44 -42t16 -53t3 -49.5v-170q0 -34 9.5 -56t22 -34t20.5 -18zM178 34
q24 5 48.5 19.5t41.5 30t17 22.5v103q-75 -5 -119.5 -32.5t-44.5 -58.5t16.5 -53.5t40.5 -30.5zM114 507l172 188l56 -50l-188 -138h-40z" />
    <glyph glyph-name="acircumflex" unicode="&#xe2;" horiz-adv-x="444" 
d="M367 -13l-81 73q-36 -33 -70.5 -52.5t-75.5 -19.5t-74 27t-33 77q0 39 26 65.5t66 42.5t83 24t77 10v94q0 83 -96 83q-25 0 -57.5 -5.5t-72.5 -18.5l-9 25q11 9 37 21t60 21.5t69 9.5q57 0 88 -16.5t44 -42t16 -53t3 -49.5v-170q0 -34 9.5 -56t22 -34t20.5 -18zM178 34
q24 5 48.5 19.5t41.5 30t17 22.5v103q-75 -5 -119.5 -32.5t-44.5 -58.5t16.5 -53.5t40.5 -30.5zM78 507l125 167h48l126 -167h-40l-110 93l-109 -93h-40z" />
    <glyph glyph-name="atilde" unicode="&#xe3;" horiz-adv-x="444" 
d="M367 -13l-81 73q-36 -33 -70.5 -52.5t-75.5 -19.5t-74 27t-33 77q0 39 26 65.5t66 42.5t83 24t77 10v94q0 83 -96 83q-25 0 -57.5 -5.5t-72.5 -18.5l-9 25q11 9 37 21t60 21.5t69 9.5q57 0 88 -16.5t44 -42t16 -53t3 -49.5v-170q0 -34 9.5 -56t22 -34t20.5 -18zM178 34
q24 5 48.5 19.5t41.5 30t17 22.5v103q-75 -5 -119.5 -32.5t-44.5 -58.5t16.5 -53.5t40.5 -30.5zM96 530l-27 15q11 26 35.5 51t66.5 38q20 0 46.5 -10t50.5 -20.5t34 -10.5q20 0 32 12t25 31l27 -15q-10 -25 -35 -50t-67 -39q-19 0 -46 10.5t-51 20.5t-34 10q-19 0 -31 -12
t-26 -31z" />
    <glyph glyph-name="adieresis" unicode="&#xe4;" horiz-adv-x="444" 
d="M367 -13l-81 73q-36 -33 -70.5 -52.5t-75.5 -19.5t-74 27t-33 77q0 39 26 65.5t66 42.5t83 24t77 10v94q0 83 -96 83q-25 0 -57.5 -5.5t-72.5 -18.5l-9 25q11 9 37 21t60 21.5t69 9.5q57 0 88 -16.5t44 -42t16 -53t3 -49.5v-170q0 -34 9.5 -56t22 -34t20.5 -18zM178 34
q24 5 48.5 19.5t41.5 30t17 22.5v103q-75 -5 -119.5 -32.5t-44.5 -58.5t16.5 -53.5t40.5 -30.5zM326 541q-21 0 -35.5 14.5t-14.5 35.5t14.5 35.5t35.5 14.5t35.5 -14.5t14.5 -35.5t-14.5 -35.5t-35.5 -14.5zM129 541q-21 0 -35.5 14.5t-14.5 35.5t14.5 35.5t35.5 14.5
t35.5 -14.5t14.5 -35.5t-14.5 -35.5t-35.5 -14.5z" />
    <glyph glyph-name="aring" unicode="&#xe5;" horiz-adv-x="444" 
d="M367 -13l-81 73q-36 -33 -70.5 -52.5t-75.5 -19.5t-74 27t-33 77q0 39 26 65.5t66 42.5t83 24t77 10v94q0 83 -96 83q-25 0 -57.5 -5.5t-72.5 -18.5l-9 25q11 9 37 21t60 21.5t69 9.5q57 0 88 -16.5t44 -42t16 -53t3 -49.5v-170q0 -34 9.5 -56t22 -34t20.5 -18zM178 34
q24 5 48.5 19.5t41.5 30t17 22.5v103q-75 -5 -119.5 -32.5t-44.5 -58.5t16.5 -53.5t40.5 -30.5zM227 512q-43 0 -71 29.5t-28 69.5q0 41 28.5 70.5t70.5 29.5q41 0 70.5 -29.5t29.5 -70.5t-29.5 -70t-70.5 -29zM226 546q29 0 48 19t19 46t-19 46.5t-47 19.5q-22 0 -36.5 -11
t-21.5 -26.5t-7 -27.5t6.5 -27.5t21 -27t36.5 -11.5z" />
    <glyph glyph-name="ae" unicode="&#xe6;" horiz-adv-x="704" 
d="M140 -11q-41 0 -74 27.5t-33 77.5q0 39 26 65.5t66 42.5t83 24t77 10v92q0 83 -96 83q-25 0 -57.5 -5.5t-72.5 -18.5l-9 25q11 9 37 21t60 21.5t69 9.5q61 0 92 -19.5t44 -46.5q32 32 73.5 49t86.5 17q47 0 85.5 -24.5t62 -72.5t23.5 -120h-316v-47q8 -59 33.5 -93.5
t61 -48.5t73.5 -14q39 0 69 8t55 19v-35q-31 -18 -71 -32.5t-86 -14.5q-60 0 -108 24.5t-77 70.5q-24 -22 -55 -44t-63 -36.5t-59 -14.5zM368 277h234q-3 45 -19.5 72.5t-39 42.5t-45 20t-37.5 5q-34 -16 -59.5 -53t-33.5 -87zM178 36q21 4 47.5 19.5t48 34t27.5 29.5
q-7 20 -11.5 43t-4.5 49q-75 -5 -119.5 -32.5t-44.5 -58.5t16.5 -53.5t40.5 -30.5z" />
    <glyph glyph-name="ccedilla" unicode="&#xe7;" horiz-adv-x="406" 
d="M228 -12q-56 0 -102 26t-73 76t-27 122q0 77 28.5 133.5t78 87.5t111.5 31q33 0 67.5 -9.5t51.5 -16.5l-10 -66q-47 25 -86.5 35.5t-64.5 10.5q-38 -19 -59.5 -55t-30 -74.5t-8.5 -68.5q0 -51 21 -91t56 -63t77 -23q35 0 62 8t49 19v-35q-28 -18 -63.5 -32.5t-77.5 -14.5
zM186 -215q-19 0 -45 4.5t-43 11.5l14 31q13 -5 34.5 -8.5t27.5 -3.5q24 0 41 11.5t17 27.5q-12 23 -35 32t-52 9l40 100h35l-25 -65q31 0 63 -17t49 -50q0 -34 -35.5 -58.5t-85.5 -24.5z" />
    <glyph glyph-name="egrave" unicode="&#xe8;" horiz-adv-x="469" 
d="M243 -12q-62 0 -111.5 26t-77.5 76t-28 122q0 83 32 139t84 84.5t111 28.5q47 0 85.5 -24.5t62 -73t23.5 -120.5h-319q0 -78 24.5 -122.5t64 -62.5t82.5 -18q39 0 69 8t55 19v-35q-31 -18 -71 -32.5t-86 -14.5zM109 276h234q-3 45 -19.5 73t-39 42.5t-45 20t-37.5 5.5
q-34 -16 -59.5 -53.5t-33.5 -87.5zM309 507l-188 138l56 50l172 -188h-40z" />
    <glyph glyph-name="eacute" unicode="&#xe9;" horiz-adv-x="469" 
d="M243 -12q-62 0 -111.5 26t-77.5 76t-28 122q0 83 32 139t84 84.5t111 28.5q47 0 85.5 -24.5t62 -73t23.5 -120.5h-319q0 -78 24.5 -122.5t64 -62.5t82.5 -18q39 0 69 8t55 19v-35q-31 -18 -71 -32.5t-86 -14.5zM109 276h234q-3 45 -19.5 73t-39 42.5t-45 20t-37.5 5.5
q-34 -16 -59.5 -53.5t-33.5 -87.5zM121 507l172 188l56 -50l-188 -138h-40z" />
    <glyph glyph-name="ecircumflex" unicode="&#xea;" horiz-adv-x="469" 
d="M243 -12q-62 0 -111.5 26t-77.5 76t-28 122q0 83 32 139t84 84.5t111 28.5q47 0 85.5 -24.5t62 -73t23.5 -120.5h-319q0 -78 24.5 -122.5t64 -62.5t82.5 -18q39 0 69 8t55 19v-35q-31 -18 -71 -32.5t-86 -14.5zM109 276h234q-3 45 -19.5 73t-39 42.5t-45 20t-37.5 5.5
q-34 -16 -59.5 -53.5t-33.5 -87.5zM85 507l125 167h48l126 -167h-40l-110 93l-109 -93h-40z" />
    <glyph glyph-name="edieresis" unicode="&#xeb;" horiz-adv-x="469" 
d="M243 -12q-62 0 -111.5 26t-77.5 76t-28 122q0 83 32 139t84 84.5t111 28.5q47 0 85.5 -24.5t62 -73t23.5 -120.5h-319q0 -78 24.5 -122.5t64 -62.5t82.5 -18q39 0 69 8t55 19v-35q-31 -18 -71 -32.5t-86 -14.5zM109 276h234q-3 45 -19.5 73t-39 42.5t-45 20t-37.5 5.5
q-34 -16 -59.5 -53.5t-33.5 -87.5zM333 541q-21 0 -35.5 14.5t-14.5 35.5t14.5 35.5t35.5 14.5t35.5 -14.5t14.5 -35.5t-14.5 -35.5t-35.5 -14.5zM136 541q-21 0 -35.5 14.5t-14.5 35.5t14.5 35.5t35.5 14.5t35.5 -14.5t14.5 -35.5t-14.5 -35.5t-35.5 -14.5z" />
    <glyph glyph-name="igrave" unicode="&#xec;" horiz-adv-x="233" 
d="M75 0v452h83v-452h-83zM191 507l-188 138l56 50l172 -188h-40z" />
    <glyph glyph-name="iacute" unicode="&#xed;" horiz-adv-x="233" 
d="M75 0v452h83v-452h-83zM3 507l172 188l56 -50l-188 -138h-40z" />
    <glyph glyph-name="icircumflex" unicode="&#xee;" horiz-adv-x="233" 
d="M75 0v452h83v-452h-83zM-33 507l125 167h48l126 -167h-40l-110 93l-109 -93h-40z" />
    <glyph glyph-name="idieresis" unicode="&#xef;" horiz-adv-x="233" 
d="M75 0v452h83v-452h-83zM215 541q-21 0 -35.5 14.5t-14.5 35.5t14.5 35.5t35.5 14.5t35.5 -14.5t14.5 -35.5t-14.5 -35.5t-35.5 -14.5zM18 541q-21 0 -35.5 14.5t-14.5 35.5t14.5 35.5t35.5 14.5t35.5 -14.5t14.5 -35.5t-14.5 -35.5t-35.5 -14.5z" />
    <glyph glyph-name="eth" unicode="&#xf0;" 
d="M229 -12q-56 0 -102 26t-73 76.5t-27 122.5q0 71 23 119t57 77t70 42t61 13q50 0 79 -21t45 -41l4 3q-9 53 -33 97t-59 78l-83 -45l-44 22l93 50q-47 32 -108 46l12 30q77 -13 138 -53l92 51l44 -23l-99 -54q76 -63 114 -157.5t38 -197.5q0 -71 -21.5 -120.5t-57 -80.5
t-78.5 -45.5t-85 -14.5zM248 22q35 0 60 19t40.5 49.5t23 65.5t7.5 68q0 55 -13.5 100.5t-45 73.5t-86.5 28q-60 -23 -88 -80t-28 -122q0 -53 13 -99.5t41.5 -74.5t75.5 -28z" />
    <glyph glyph-name="ntilde" unicode="&#xf1;" 
d="M80 0v314q0 35 -9.5 56.5t-21.5 34t-20 18.5l51 38l82 -73q37 35 69.5 55.5t76.5 20.5q23 0 50.5 -12t47.5 -44.5t20 -94.5v-313h-85v303q0 47 -16.5 72.5t-60.5 25.5q-43 0 -99 -56v-345h-85zM123 530l-27 15q11 26 35.5 51t66.5 38q20 0 46.5 -10t50.5 -20.5t34 -10.5
q20 0 32 12t25 31l27 -15q-10 -25 -35 -50t-67 -39q-19 0 -46 10.5t-51 20.5t-34 10q-19 0 -31 -12t-26 -31z" />
    <glyph glyph-name="ograve" unicode="&#xf2;" 
d="M229 -12q-56 0 -102 26t-73 76.5t-27 122.5q0 71 22.5 119t59 77t78.5 42t81 13q57 0 103 -26t73 -76t27 -123q0 -71 -23 -119t-59.5 -77t-78.5 -42t-81 -13zM248 22q35 0 60 19t40.5 49.5t23 65.5t7.5 68q0 55 -13.5 100.5t-45 73.5t-86.5 28q-60 -23 -88 -80t-28 -122
q0 -53 13 -99.5t41.5 -74.5t75.5 -28zM324 507l-188 138l56 50l172 -188h-40z" />
    <glyph glyph-name="oacute" unicode="&#xf3;" 
d="M229 -12q-56 0 -102 26t-73 76.5t-27 122.5q0 71 22.5 119t59 77t78.5 42t81 13q57 0 103 -26t73 -76t27 -123q0 -71 -23 -119t-59.5 -77t-78.5 -42t-81 -13zM248 22q35 0 60 19t40.5 49.5t23 65.5t7.5 68q0 55 -13.5 100.5t-45 73.5t-86.5 28q-60 -23 -88 -80t-28 -122
q0 -53 13 -99.5t41.5 -74.5t75.5 -28zM136 507l172 188l56 -50l-188 -138h-40z" />
    <glyph glyph-name="ocircumflex" unicode="&#xf4;" 
d="M229 -12q-56 0 -102 26t-73 76.5t-27 122.5q0 71 22.5 119t59 77t78.5 42t81 13q57 0 103 -26t73 -76t27 -123q0 -71 -23 -119t-59.5 -77t-78.5 -42t-81 -13zM248 22q35 0 60 19t40.5 49.5t23 65.5t7.5 68q0 55 -13.5 100.5t-45 73.5t-86.5 28q-60 -23 -88 -80t-28 -122
q0 -53 13 -99.5t41.5 -74.5t75.5 -28zM100 507l125 167h48l126 -167h-40l-110 93l-109 -93h-40z" />
    <glyph glyph-name="otilde" unicode="&#xf5;" 
d="M229 -12q-56 0 -102 26t-73 76.5t-27 122.5q0 71 22.5 119t59 77t78.5 42t81 13q57 0 103 -26t73 -76t27 -123q0 -71 -23 -119t-59.5 -77t-78.5 -42t-81 -13zM248 22q35 0 60 19t40.5 49.5t23 65.5t7.5 68q0 55 -13.5 100.5t-45 73.5t-86.5 28q-60 -23 -88 -80t-28 -122
q0 -53 13 -99.5t41.5 -74.5t75.5 -28zM118 530l-27 15q11 26 35.5 51t66.5 38q20 0 46.5 -10t50.5 -20.5t34 -10.5q20 0 32 12t25 31l27 -15q-10 -25 -35 -50t-67 -39q-19 0 -46 10.5t-51 20.5t-34 10q-19 0 -31 -12t-26 -31z" />
    <glyph glyph-name="odieresis" unicode="&#xf6;" 
d="M229 -12q-56 0 -102 26t-73 76.5t-27 122.5q0 71 22.5 119t59 77t78.5 42t81 13q57 0 103 -26t73 -76t27 -123q0 -71 -23 -119t-59.5 -77t-78.5 -42t-81 -13zM248 22q35 0 60 19t40.5 49.5t23 65.5t7.5 68q0 55 -13.5 100.5t-45 73.5t-86.5 28q-60 -23 -88 -80t-28 -122
q0 -53 13 -99.5t41.5 -74.5t75.5 -28zM348 541q-21 0 -35.5 14.5t-14.5 35.5t14.5 35.5t35.5 14.5t35.5 -14.5t14.5 -35.5t-14.5 -35.5t-35.5 -14.5zM151 541q-21 0 -35.5 14.5t-14.5 35.5t14.5 35.5t35.5 14.5t35.5 -14.5t14.5 -35.5t-14.5 -35.5t-35.5 -14.5z" />
    <glyph glyph-name="divide" unicode="&#xf7;" horiz-adv-x="564" 
d="M282 388q-14 0 -31.5 11.5t-17.5 36.5q0 21 14.5 35.5t34.5 14.5t35 -15t15 -35q0 -25 -18 -36.5t-32 -11.5zM59 224v58h446v-58h-446zM282 20q-14 0 -31.5 11.5t-17.5 36.5q0 21 14.5 35.5t34.5 14.5t35 -15t15 -35q0 -25 -18 -36.5t-32 -11.5z" />
    <glyph glyph-name="oslash" unicode="&#xf8;" 
d="M51 -68l57 95q-37 28 -59 74.5t-22 111.5q0 71 22.5 119t59 77t78.5 42t81 13q50 0 91 -20l45 75h46l-57 -96q36 -28 57 -74.5t21 -109.5q0 -71 -23 -119t-59.5 -77t-78.5 -42t-81 -13q-46 0 -85 18l-44 -74h-49zM118 224q0 -38 6.5 -73t20.5 -63l182 304
q-16 16 -39.5 25t-53.5 9q-60 -23 -88 -80t-28 -122zM248 22q35 0 60 19t40.5 49.5t23 65.5t7.5 68q0 38 -6 72t-20 61l-182 -305q15 -14 34 -22t43 -8z" />
    <glyph glyph-name="ugrave" unicode="&#xf9;" horiz-adv-x="480" 
d="M169 -12q-23 0 -50.5 11.5t-47.5 44t-20 93.5v315h85v-320q0 -46 16.5 -71.5t60.5 -25.5q23 0 49 18t50 46v353h85v-318q0 -34 9.5 -55.5t22 -34t20.5 -19.5l-52 -37l-81 73q-37 -35 -70 -54t-77 -19zM314 507l-188 138l56 50l172 -188h-40z" />
    <glyph glyph-name="uacute" unicode="&#xfa;" horiz-adv-x="480" 
d="M169 -12q-23 0 -50.5 11.5t-47.5 44t-20 93.5v315h85v-320q0 -46 16.5 -71.5t60.5 -25.5q23 0 49 18t50 46v353h85v-318q0 -34 9.5 -55.5t22 -34t20.5 -19.5l-52 -37l-81 73q-37 -35 -70 -54t-77 -19zM126 507l172 188l56 -50l-188 -138h-40z" />
    <glyph glyph-name="ucircumflex" unicode="&#xfb;" horiz-adv-x="480" 
d="M169 -12q-23 0 -50.5 11.5t-47.5 44t-20 93.5v315h85v-320q0 -46 16.5 -71.5t60.5 -25.5q23 0 49 18t50 46v353h85v-318q0 -34 9.5 -55.5t22 -34t20.5 -19.5l-52 -37l-81 73q-37 -35 -70 -54t-77 -19zM90 507l125 167h48l126 -167h-40l-110 93l-109 -93h-40z" />
    <glyph glyph-name="udieresis" unicode="&#xfc;" horiz-adv-x="480" 
d="M169 -12q-23 0 -50.5 11.5t-47.5 44t-20 93.5v315h85v-320q0 -46 16.5 -71.5t60.5 -25.5q23 0 49 18t50 46v353h85v-318q0 -34 9.5 -55.5t22 -34t20.5 -19.5l-52 -37l-81 73q-37 -35 -70 -54t-77 -19zM338 541q-21 0 -35.5 14.5t-14.5 35.5t14.5 35.5t35.5 14.5
t35.5 -14.5t14.5 -35.5t-14.5 -35.5t-35.5 -14.5zM141 541q-21 0 -35.5 14.5t-14.5 35.5t14.5 35.5t35.5 14.5t35.5 -14.5t14.5 -35.5t-14.5 -35.5t-35.5 -14.5z" />
    <glyph glyph-name="yacute" unicode="&#xfd;" horiz-adv-x="441" 
d="M5 -220l14 73q56 2 95.5 25t66.5 57.5t44 69.5l-203 447h89l153 -339l118 339h38l-171 -467q-22 -60 -59 -106t-84.5 -72t-100.5 -27zM117 507l172 188l56 -50l-188 -138h-40z" />
    <glyph glyph-name="thorn" unicode="&#xfe;" 
d="M75 -212v895h85v-295q19 21 45 37.5t53 26.5t48 10q23 0 51.5 -10t56 -36t45 -74t17.5 -123q0 -37 -11.5 -78t-34.5 -77t-57 -58.5t-79 -22.5q-29 0 -62.5 11t-71.5 36v-242h-85zM267 31q56 0 87 50t31 126q0 86 -26 141t-63 67q-39 -4 -70 -24t-48.5 -39.5t-17.5 -24.5
v-268q59 -28 107 -28z" />
    <glyph glyph-name="ydieresis" unicode="&#xff;" horiz-adv-x="441" 
d="M5 -220l14 73q56 2 95.5 25t66.5 57.5t44 69.5l-203 447h89l153 -339l118 339h38l-171 -467q-22 -60 -59 -106t-84.5 -72t-100.5 -27zM329 541q-21 0 -35.5 14.5t-14.5 35.5t14.5 35.5t35.5 14.5t35.5 -14.5t14.5 -35.5t-14.5 -35.5t-35.5 -14.5zM132 541
q-21 0 -35.5 14.5t-14.5 35.5t14.5 35.5t35.5 14.5t35.5 -14.5t14.5 -35.5t-14.5 -35.5t-35.5 -14.5z" />
    <glyph glyph-name="Amacron" unicode="&#x100;" horiz-adv-x="629" 
d="M10 0l297 678h15l297 -678h-109l-75 180h-297l-74 -180h-54zM153 218h266l-132 324zM159 757v54h311v-54h-311z" />
    <glyph glyph-name="amacron" unicode="&#x101;" horiz-adv-x="444" 
d="M367 -13l-81 73q-36 -33 -70.5 -52.5t-75.5 -19.5t-74 27t-33 77q0 39 26 65.5t66 42.5t83 24t77 10v94q0 83 -96 83q-25 0 -57.5 -5.5t-72.5 -18.5l-9 25q11 9 37 21t60 21.5t69 9.5q57 0 88 -16.5t44 -42t16 -53t3 -49.5v-170q0 -34 9.5 -56t22 -34t20.5 -18zM178 34
q24 5 48.5 19.5t41.5 30t17 22.5v103q-75 -5 -119.5 -32.5t-44.5 -58.5t16.5 -53.5t40.5 -30.5zM72 547v54h311v-54h-311z" />
    <glyph glyph-name="Abreve" unicode="&#x102;" horiz-adv-x="629" 
d="M10 0l297 678h15l297 -678h-109l-75 180h-297l-74 -180h-54zM153 218h266l-132 324zM312 718q-35 0 -67 16t-51.5 50t-19.5 86v5h29q8 -46 35.5 -71.5t75.5 -25.5q38 0 59 14t32.5 36t20.5 47h29q-1 -12 -6 -37t-19 -53t-42 -47.5t-76 -19.5z" />
    <glyph glyph-name="abreve" unicode="&#x103;" horiz-adv-x="444" 
d="M367 -13l-81 73q-36 -33 -70.5 -52.5t-75.5 -19.5t-74 27t-33 77q0 39 26 65.5t66 42.5t83 24t77 10v94q0 83 -96 83q-25 0 -57.5 -5.5t-72.5 -18.5l-9 25q11 9 37 21t60 21.5t69 9.5q57 0 88 -16.5t44 -42t16 -53t3 -49.5v-170q0 -34 9.5 -56t22 -34t20.5 -18zM178 34
q24 5 48.5 19.5t41.5 30t17 22.5v103q-75 -5 -119.5 -32.5t-44.5 -58.5t16.5 -53.5t40.5 -30.5zM225 507q-35 0 -67 16t-51.5 50t-19.5 86v5h29q8 -46 35.5 -71.5t75.5 -25.5q38 0 59 14t32.5 36t20.5 47h29q-1 -12 -6 -37t-19 -53t-42 -47.5t-76 -19.5z" />
    <glyph glyph-name="Aogonek" unicode="&#x104;" horiz-adv-x="629" 
d="M10 0l297 678h15l297 -678h-109l-75 180h-297l-74 -180h-54zM153 218h266l-132 324zM532 -165q-33 0 -56 20t-23 48q0 32 16.5 57t39.5 40h44q-18 -14 -32 -31.5t-14 -43.5q0 -21 13 -31t32 -10t38.5 12.5t27.5 30.5l16 -7q-10 -35 -39.5 -60t-62.5 -25z" />
    <glyph glyph-name="aogonek" unicode="&#x105;" horiz-adv-x="444" 
d="M367 -13l-81 73q-36 -33 -70.5 -52.5t-75.5 -19.5t-74 27t-33 77q0 39 26 65.5t66 42.5t83 24t77 10v94q0 83 -96 83q-25 0 -57.5 -5.5t-72.5 -18.5l-9 25q11 9 37 21t60 21.5t69 9.5q57 0 88 -16.5t44 -42t16 -53t3 -49.5v-170q0 -34 9.5 -56t22 -34t20.5 -18zM178 34
q24 5 48.5 19.5t41.5 30t17 22.5v103q-75 -5 -119.5 -32.5t-44.5 -58.5t16.5 -53.5t40.5 -30.5zM377 -155q-33 0 -56 20t-23 48q0 32 16.5 57t39.5 40h44q-18 -14 -32 -31.5t-14 -43.5q0 -21 13 -31t32 -10t38.5 12.5t27.5 30.5l16 -7q-10 -35 -39.5 -60t-62.5 -25z" />
    <glyph glyph-name="Cacute" unicode="&#x106;" horiz-adv-x="632" 
d="M395 -12q-72 0 -138 19.5t-117.5 60t-81.5 101.5t-30 144q0 96 34.5 164.5t91.5 112t125 64t134 20.5q31 0 65 -5t63 -12t45 -13l-10 -68q-54 23 -106.5 40t-117.5 17q-106 -24 -162 -104.5t-56 -199.5q0 -100 36.5 -168.5t99.5 -103t144 -34.5q53 0 105 13.5t83 40.5
v-55q-30 -12 -67 -19.5t-73.5 -11t-66.5 -3.5zM279 717l172 188l56 -50l-188 -138h-40z" />
    <glyph glyph-name="cacute" unicode="&#x107;" horiz-adv-x="406" 
d="M228 -12q-56 0 -102 26t-73 76t-27 122q0 77 28.5 133.5t78 87.5t111.5 31q33 0 67.5 -9.5t51.5 -16.5l-10 -66q-47 25 -86.5 35.5t-64.5 10.5q-38 -19 -59.5 -55t-30 -74.5t-8.5 -68.5q0 -51 21 -91t56 -63t77 -23q35 0 62 8t49 19v-35q-28 -18 -63.5 -32.5t-77.5 -14.5
zM136 507l172 188l56 -50l-188 -138h-40z" />
    <glyph glyph-name="Ccircumflex" unicode="&#x108;" horiz-adv-x="632" 
d="M395 -12q-72 0 -138 19.5t-117.5 60t-81.5 101.5t-30 144q0 96 34.5 164.5t91.5 112t125 64t134 20.5q31 0 65 -5t63 -12t45 -13l-10 -68q-54 23 -106.5 40t-117.5 17q-106 -24 -162 -104.5t-56 -199.5q0 -100 36.5 -168.5t99.5 -103t144 -34.5q53 0 105 13.5t83 40.5
v-55q-30 -12 -67 -19.5t-73.5 -11t-66.5 -3.5zM226 718l125 167h48l126 -167h-40l-110 93l-109 -93h-40z" />
    <glyph glyph-name="ccircumflex" unicode="&#x109;" horiz-adv-x="406" 
d="M228 -12q-56 0 -102 26t-73 76t-27 122q0 77 28.5 133.5t78 87.5t111.5 31q33 0 67.5 -9.5t51.5 -16.5l-10 -66q-47 25 -86.5 35.5t-64.5 10.5q-38 -19 -59.5 -55t-30 -74.5t-8.5 -68.5q0 -51 21 -91t56 -63t77 -23q35 0 62 8t49 19v-35q-28 -18 -63.5 -32.5t-77.5 -14.5
zM100 507l125 167h48l126 -167h-40l-110 93l-109 -93h-40z" />
    <glyph glyph-name="Cdotaccent" unicode="&#x10a;" horiz-adv-x="632" 
d="M395 -12q-72 0 -138 19.5t-117.5 60t-81.5 101.5t-30 144q0 96 34.5 164.5t91.5 112t125 64t134 20.5q31 0 65 -5t63 -12t45 -13l-10 -68q-54 23 -106.5 40t-117.5 17q-106 -24 -162 -104.5t-56 -199.5q0 -100 36.5 -168.5t99.5 -103t144 -34.5q53 0 105 13.5t83 40.5
v-55q-30 -12 -67 -19.5t-73.5 -11t-66.5 -3.5zM375 751q-22 0 -36.5 16t-14.5 36q0 22 14.5 37t36.5 15q21 0 36.5 -15t15.5 -37q0 -20 -15.5 -36t-36.5 -16z" />
    <glyph glyph-name="cdotaccent" unicode="&#x10b;" horiz-adv-x="406" 
d="M228 -12q-56 0 -102 26t-73 76t-27 122q0 77 28.5 133.5t78 87.5t111.5 31q33 0 67.5 -9.5t51.5 -16.5l-10 -66q-47 25 -86.5 35.5t-64.5 10.5q-38 -19 -59.5 -55t-30 -74.5t-8.5 -68.5q0 -51 21 -91t56 -63t77 -23q35 0 62 8t49 19v-35q-28 -18 -63.5 -32.5t-77.5 -14.5
zM249 541q-22 0 -36.5 16t-14.5 36q0 22 14.5 37t36.5 15q21 0 36.5 -15t15.5 -37q0 -20 -15.5 -36t-36.5 -16z" />
    <glyph glyph-name="Ccaron" unicode="&#x10c;" horiz-adv-x="632" 
d="M395 -12q-72 0 -138 19.5t-117.5 60t-81.5 101.5t-30 144q0 96 34.5 164.5t91.5 112t125 64t134 20.5q31 0 65 -5t63 -12t45 -13l-10 -68q-54 23 -106.5 40t-117.5 17q-106 -24 -162 -104.5t-56 -199.5q0 -100 36.5 -168.5t99.5 -103t144 -34.5q53 0 105 13.5t83 40.5
v-55q-30 -12 -67 -19.5t-73.5 -11t-66.5 -3.5zM352 724l-126 167h40l110 -93l109 93h40l-125 -167h-48z" />
    <glyph glyph-name="ccaron" unicode="&#x10d;" horiz-adv-x="406" 
d="M228 -12q-56 0 -102 26t-73 76t-27 122q0 77 28.5 133.5t78 87.5t111.5 31q33 0 67.5 -9.5t51.5 -16.5l-10 -66q-47 25 -86.5 35.5t-64.5 10.5q-38 -19 -59.5 -55t-30 -74.5t-8.5 -68.5q0 -51 21 -91t56 -63t77 -23q35 0 62 8t49 19v-35q-28 -18 -63.5 -32.5t-77.5 -14.5
zM226 506l-126 167h40l110 -93l109 93h40l-125 -167h-48z" />
    <glyph glyph-name="Dcaron" unicode="&#x10e;" horiz-adv-x="708" 
d="M90 0v662h189q67 0 135 -18.5t125 -60t91.5 -108t34.5 -162.5q0 -83 -30 -142.5t-81.5 -97t-117.5 -55.5t-138 -18h-208zM278 34q81 0 144.5 32t100 97.5t36.5 165.5q0 77 -28.5 138t-78 102t-112.5 57q-35 0 -79.5 -6t-72.5 -15v-562q14 -4 40 -6.5t50 -2.5zM330 724
l-126 167h40l110 -93l109 93h40l-125 -167h-48z" />
    <glyph glyph-name="dcaron" unicode="&#x10f;" 
d="M424 -13l-82 73q-37 -34 -69.5 -53t-76.5 -19q-22 0 -51 9.5t-56 34.5t-45 72.5t-18 122.5q0 39 11 80.5t33 77t55.5 57t78.5 21.5q29 0 63 -11t72 -35v266h85v-549q0 -34 9.5 -56t21.5 -34.5t20 -19.5zM203 33q39 3 69.5 17t48.5 29t18 22v279q-27 18 -51.5 26.5
t-45.5 8.5q-40 0 -68.5 -25.5t-44 -69t-15.5 -97.5q0 -85 27 -133t62 -57zM475 468l-12 19q29 23 48 55t19 64q-21 0 -41.5 14t-20.5 41q14 21 45 37.5t60 19.5q8 -22 11 -42t3 -38q0 -62 -33 -103t-79 -67z" />
    <glyph glyph-name="Dcroat" unicode="&#x110;" horiz-adv-x="708" 
d="M90 0v662h189q67 0 135 -18.5t125 -60t91.5 -108t34.5 -162.5q0 -83 -30 -142.5t-81.5 -97t-117.5 -55.5t-138 -18h-208zM278 34q81 0 144.5 32t100 97.5t36.5 165.5q0 77 -28.5 138t-78 102t-112.5 57q-35 0 -79.5 -6t-72.5 -15v-562q14 -4 40 -6.5t50 -2.5zM0 325v49
h390v-49h-390z" />
    <glyph glyph-name="dcroat" unicode="&#x111;" 
d="M424 -13l-82 73q-37 -34 -69.5 -53t-76.5 -19q-22 0 -51 9.5t-56 34.5t-45 72.5t-18 122.5q0 39 11 80.5t33 77t55.5 57t78.5 21.5q29 0 63 -11t72 -35v133h-156v49h156v84h85v-84h71v-49h-71v-416q0 -34 9.5 -56t21.5 -34.5t20 -19.5zM203 33q39 3 69.5 17t48.5 29
t18 22v279q-27 18 -51.5 26.5t-45.5 8.5q-40 0 -68.5 -25.5t-44 -69t-15.5 -97.5q0 -85 27 -133t62 -57z" />
    <glyph glyph-name="Emacron" unicode="&#x112;" horiz-adv-x="562" 
d="M90 0v662h401l-10 -67l-186 31q-29 0 -54 -4.5t-54 -12.5v-243h222v-38h-222v-292l310 31l-10 -67h-397zM125 757v54h311v-54h-311z" />
    <glyph glyph-name="emacron" unicode="&#x113;" horiz-adv-x="469" 
d="M243 -12q-62 0 -111.5 26t-77.5 76t-28 122q0 83 32 139t84 84.5t111 28.5q47 0 85.5 -24.5t62 -73t23.5 -120.5h-319q0 -78 24.5 -122.5t64 -62.5t82.5 -18q39 0 69 8t55 19v-35q-31 -18 -71 -32.5t-86 -14.5zM109 276h234q-3 45 -19.5 73t-39 42.5t-45 20t-37.5 5.5
q-34 -16 -59.5 -53.5t-33.5 -87.5zM79 547v54h311v-54h-311z" />
    <glyph glyph-name="Ebreve" unicode="&#x114;" horiz-adv-x="562" 
d="M90 0v662h401l-10 -67l-186 31q-29 0 -54 -4.5t-54 -12.5v-243h222v-38h-222v-292l310 31l-10 -67h-397zM278 718q-35 0 -67 16t-51.5 50t-19.5 86v5h29q8 -46 35.5 -71.5t75.5 -25.5q38 0 59 14t32.5 36t20.5 47h29q-1 -12 -6 -37t-19 -53t-42 -47.5t-76 -19.5z" />
    <glyph glyph-name="ebreve" unicode="&#x115;" horiz-adv-x="469" 
d="M243 -12q-62 0 -111.5 26t-77.5 76t-28 122q0 83 32 139t84 84.5t111 28.5q47 0 85.5 -24.5t62 -73t23.5 -120.5h-319q0 -78 24.5 -122.5t64 -62.5t82.5 -18q39 0 69 8t55 19v-35q-31 -18 -71 -32.5t-86 -14.5zM109 276h234q-3 45 -19.5 73t-39 42.5t-45 20t-37.5 5.5
q-34 -16 -59.5 -53.5t-33.5 -87.5zM232 507q-35 0 -67 16t-51.5 50t-19.5 86v5h29q8 -46 35.5 -71.5t75.5 -25.5q38 0 59 14t32.5 36t20.5 47h29q-1 -12 -6 -37t-19 -53t-42 -47.5t-76 -19.5z" />
    <glyph glyph-name="Edotaccent" unicode="&#x116;" horiz-adv-x="562" 
d="M90 0v662h401l-10 -67l-186 31q-29 0 -54 -4.5t-54 -12.5v-243h222v-38h-222v-292l310 31l-10 -67h-397zM280 751q-22 0 -36.5 16t-14.5 36q0 22 14.5 37t36.5 15q21 0 36.5 -15t15.5 -37q0 -20 -15.5 -36t-36.5 -16z" />
    <glyph glyph-name="edotaccent" unicode="&#x117;" horiz-adv-x="469" 
d="M243 -12q-62 0 -111.5 26t-77.5 76t-28 122q0 83 32 139t84 84.5t111 28.5q47 0 85.5 -24.5t62 -73t23.5 -120.5h-319q0 -78 24.5 -122.5t64 -62.5t82.5 -18q39 0 69 8t55 19v-35q-31 -18 -71 -32.5t-86 -14.5zM109 276h234q-3 45 -19.5 73t-39 42.5t-45 20t-37.5 5.5
q-34 -16 -59.5 -53.5t-33.5 -87.5zM234 541q-22 0 -36.5 16t-14.5 36q0 22 14.5 37t36.5 15q21 0 36.5 -15t15.5 -37q0 -20 -15.5 -36t-36.5 -16z" />
    <glyph glyph-name="Eogonek" unicode="&#x118;" horiz-adv-x="562" 
d="M90 0v662h401l-10 -67l-186 31q-29 0 -54 -4.5t-54 -12.5v-243h222v-38h-222v-292l310 31l-10 -67h-397zM404 -165q-33 0 -56 20t-23 48q0 32 16.5 57t39.5 40h44q-18 -14 -32 -31.5t-14 -43.5q0 -21 13 -31t32 -10t38.5 12.5t27.5 30.5l16 -7q-10 -35 -39.5 -60
t-62.5 -25z" />
    <glyph glyph-name="eogonek" unicode="&#x119;" horiz-adv-x="469" 
d="M243 -12q-62 0 -111.5 26t-77.5 76t-28 122q0 83 32 139t84 84.5t111 28.5q47 0 85.5 -24.5t62 -73t23.5 -120.5h-319q0 -78 24.5 -122.5t64 -62.5t82.5 -18q39 0 69 8t55 19v-35q-31 -18 -71 -32.5t-86 -14.5zM109 276h234q-3 45 -19.5 73t-39 42.5t-45 20t-37.5 5.5
q-34 -16 -59.5 -53.5t-33.5 -87.5zM308 -155q-33 0 -56 20t-23 48q0 32 16.5 57t39.5 40h44q-18 -14 -32 -31.5t-14 -43.5q0 -21 13 -31t32 -10t38.5 12.5t27.5 30.5l16 -7q-10 -35 -39.5 -60t-62.5 -25z" />
    <glyph glyph-name="Ecaron" unicode="&#x11a;" horiz-adv-x="562" 
d="M90 0v662h401l-10 -67l-186 31q-29 0 -54 -4.5t-54 -12.5v-243h222v-38h-222v-292l310 31l-10 -67h-397zM257 724l-126 167h40l110 -93l109 93h40l-125 -167h-48z" />
    <glyph glyph-name="ecaron" unicode="&#x11b;" horiz-adv-x="469" 
d="M243 -12q-62 0 -111.5 26t-77.5 76t-28 122q0 83 32 139t84 84.5t111 28.5q47 0 85.5 -24.5t62 -73t23.5 -120.5h-319q0 -78 24.5 -122.5t64 -62.5t82.5 -18q39 0 69 8t55 19v-35q-31 -18 -71 -32.5t-86 -14.5zM109 276h234q-3 45 -19.5 73t-39 42.5t-45 20t-37.5 5.5
q-34 -16 -59.5 -53.5t-33.5 -87.5zM211 506l-126 167h40l110 -93l109 93h40l-125 -167h-48z" />
    <glyph glyph-name="Gcircumflex" unicode="&#x11c;" horiz-adv-x="680" 
d="M399 -12q-70 0 -135.5 19.5t-118 59.5t-83 101t-30.5 144q0 96 35.5 164.5t93 112.5t125 64.5t131.5 20.5q31 0 65 -5t63 -12t45 -14l-10 -67q-58 25 -112 41t-112 16q-100 -25 -159 -106.5t-59 -198.5q0 -100 36.5 -168t99.5 -102.5t144 -34.5q23 0 46 2.5t45 7.5v252
h97v-263q-30 -12 -67 -19.5t-73.5 -11t-66.5 -3.5zM226 718l125 167h48l126 -167h-40l-110 93l-109 -93h-40z" />
    <glyph glyph-name="gcircumflex" unicode="&#x11d;" horiz-adv-x="490" 
d="M199 -222q-48 0 -87.5 12t-62.5 36.5t-23 61.5q0 29 17.5 59.5t64.5 51.5q-22 8 -34 24t-12 41t20.5 50.5t51.5 49.5q-33 17 -54 50t-21 81q0 47 17 79t44 52t58.5 29t60.5 9q26 0 50.5 -8t43.5 -19l88 25l20 -43l-62 -31q9 -16 14 -34.5t5 -41.5q0 -47 -17.5 -79
t-45.5 -51t-60 -27.5t-61 -8.5q-7 0 -14 0.5t-14 1.5q-9 -3 -22 -11.5t-22.5 -20.5t-9.5 -25q0 -22 31.5 -28t89.5 -6q89 0 142.5 -16.5t53.5 -69.5q0 -47 -32.5 -91.5t-88.5 -73t-129 -28.5zM227 177q92 0 92 125q0 35 -12.5 64t-33.5 47t-46 18q-45 0 -68.5 -35.5
t-23.5 -93.5q0 -52 27 -88.5t65 -36.5zM215 -176q60 0 104.5 23t69.5 55.5t25 59.5q-20 8 -49 13t-58.5 6.5t-52.5 1.5q-32 0 -59.5 1t-49.5 5q-14 -12 -29 -35t-15 -49q0 -34 26.5 -57.5t87.5 -23.5zM95 507l125 167h48l126 -167h-40l-110 93l-109 -93h-40z" />
    <glyph glyph-name="Gbreve" unicode="&#x11e;" horiz-adv-x="680" 
d="M399 -12q-70 0 -135.5 19.5t-118 59.5t-83 101t-30.5 144q0 96 35.5 164.5t93 112.5t125 64.5t131.5 20.5q31 0 65 -5t63 -12t45 -14l-10 -67q-58 25 -112 41t-112 16q-100 -25 -159 -106.5t-59 -198.5q0 -100 36.5 -168t99.5 -102.5t144 -34.5q23 0 46 2.5t45 7.5v252
h97v-263q-30 -12 -67 -19.5t-73.5 -11t-66.5 -3.5zM373 718q-35 0 -67 16t-51.5 50t-19.5 86v5h29q8 -46 35.5 -71.5t75.5 -25.5q38 0 59 14t32.5 36t20.5 47h29q-1 -12 -6 -37t-19 -53t-42 -47.5t-76 -19.5z" />
    <glyph glyph-name="gbreve" unicode="&#x11f;" horiz-adv-x="490" 
d="M199 -222q-48 0 -87.5 12t-62.5 36.5t-23 61.5q0 29 17.5 59.5t64.5 51.5q-22 8 -34 24t-12 41t20.5 50.5t51.5 49.5q-33 17 -54 50t-21 81q0 47 17 79t44 52t58.5 29t60.5 9q26 0 50.5 -8t43.5 -19l88 25l20 -43l-62 -31q9 -16 14 -34.5t5 -41.5q0 -47 -17.5 -79
t-45.5 -51t-60 -27.5t-61 -8.5q-7 0 -14 0.5t-14 1.5q-9 -3 -22 -11.5t-22.5 -20.5t-9.5 -25q0 -22 31.5 -28t89.5 -6q89 0 142.5 -16.5t53.5 -69.5q0 -47 -32.5 -91.5t-88.5 -73t-129 -28.5zM227 177q92 0 92 125q0 35 -12.5 64t-33.5 47t-46 18q-45 0 -68.5 -35.5
t-23.5 -93.5q0 -52 27 -88.5t65 -36.5zM215 -176q60 0 104.5 23t69.5 55.5t25 59.5q-20 8 -49 13t-58.5 6.5t-52.5 1.5q-32 0 -59.5 1t-49.5 5q-14 -12 -29 -35t-15 -49q0 -34 26.5 -57.5t87.5 -23.5zM242 507q-35 0 -67 16t-51.5 50t-19.5 86v5h29q8 -46 35.5 -71.5
t75.5 -25.5q38 0 59 14t32.5 36t20.5 47h29q-1 -12 -6 -37t-19 -53t-42 -47.5t-76 -19.5z" />
    <glyph glyph-name="Gdotaccent" unicode="&#x120;" horiz-adv-x="680" 
d="M399 -12q-70 0 -135.5 19.5t-118 59.5t-83 101t-30.5 144q0 96 35.5 164.5t93 112.5t125 64.5t131.5 20.5q31 0 65 -5t63 -12t45 -14l-10 -67q-58 25 -112 41t-112 16q-100 -25 -159 -106.5t-59 -198.5q0 -100 36.5 -168t99.5 -102.5t144 -34.5q23 0 46 2.5t45 7.5v252
h97v-263q-30 -12 -67 -19.5t-73.5 -11t-66.5 -3.5zM375 751q-22 0 -36.5 16t-14.5 36q0 22 14.5 37t36.5 15q21 0 36.5 -15t15.5 -37q0 -20 -15.5 -36t-36.5 -16z" />
    <glyph glyph-name="gdotaccent" unicode="&#x121;" horiz-adv-x="490" 
d="M199 -222q-48 0 -87.5 12t-62.5 36.5t-23 61.5q0 29 17.5 59.5t64.5 51.5q-22 8 -34 24t-12 41t20.5 50.5t51.5 49.5q-33 17 -54 50t-21 81q0 47 17 79t44 52t58.5 29t60.5 9q26 0 50.5 -8t43.5 -19l88 25l20 -43l-62 -31q9 -16 14 -34.5t5 -41.5q0 -47 -17.5 -79
t-45.5 -51t-60 -27.5t-61 -8.5q-7 0 -14 0.5t-14 1.5q-9 -3 -22 -11.5t-22.5 -20.5t-9.5 -25q0 -22 31.5 -28t89.5 -6q89 0 142.5 -16.5t53.5 -69.5q0 -47 -32.5 -91.5t-88.5 -73t-129 -28.5zM227 177q92 0 92 125q0 35 -12.5 64t-33.5 47t-46 18q-45 0 -68.5 -35.5
t-23.5 -93.5q0 -52 27 -88.5t65 -36.5zM215 -176q60 0 104.5 23t69.5 55.5t25 59.5q-20 8 -49 13t-58.5 6.5t-52.5 1.5q-32 0 -59.5 1t-49.5 5q-14 -12 -29 -35t-15 -49q0 -34 26.5 -57.5t87.5 -23.5zM244 541q-22 0 -36.5 16t-14.5 36q0 22 14.5 37t36.5 15q21 0 36.5 -15
t15.5 -37q0 -20 -15.5 -36t-36.5 -16z" />
    <glyph glyph-name="uni0122" unicode="&#x122;" horiz-adv-x="680" 
d="M399 -12q-70 0 -135.5 19.5t-118 59.5t-83 101t-30.5 144q0 96 35.5 164.5t93 112.5t125 64.5t131.5 20.5q31 0 65 -5t63 -12t45 -14l-10 -67q-58 25 -112 41t-112 16q-100 -25 -159 -106.5t-59 -198.5q0 -100 36.5 -168t99.5 -102.5t144 -34.5q23 0 46 2.5t45 7.5v252
h97v-263q-30 -12 -67 -19.5t-73.5 -11t-66.5 -3.5zM283 -292l-12 19q29 23 48 55t19 64q-21 0 -41.5 14t-20.5 41q14 21 45 37.5t60 19.5q8 -22 11 -42t3 -38q0 -62 -33 -103t-79 -67z" />
    <glyph glyph-name="uni0123" unicode="&#x123;" horiz-adv-x="490" 
d="M302 744l12 -19q-29 -23 -48 -55t-19 -64q21 0 41.5 -14t20.5 -41q-14 -21 -45 -37.5t-60 -19.5q-7 22 -10.5 42t-3.5 38q0 62 33 103.5t79 66.5zM199 -222q-48 0 -87.5 12t-62.5 36.5t-23 61.5q0 29 17.5 59.5t64.5 51.5q-22 8 -34 24t-12 41t20.5 50.5t51.5 49.5
q-33 17 -54 50t-21 81q0 47 17 79t44 52t58.5 29t60.5 9q26 0 50.5 -8t43.5 -19l88 25l20 -43l-62 -31q9 -16 14 -34.5t5 -41.5q0 -47 -17.5 -79t-45.5 -51t-60 -27.5t-61 -8.5q-7 0 -14 0.5t-14 1.5q-9 -3 -22 -11.5t-22.5 -20.5t-9.5 -25q0 -22 31.5 -28t89.5 -6
q89 0 142.5 -16.5t53.5 -69.5q0 -47 -32.5 -91.5t-88.5 -73t-129 -28.5zM227 177q92 0 92 125q0 35 -12.5 64t-33.5 47t-46 18q-45 0 -68.5 -35.5t-23.5 -93.5q0 -52 27 -88.5t65 -36.5zM215 -176q60 0 104.5 23t69.5 55.5t25 59.5q-20 8 -49 13t-58.5 6.5t-52.5 1.5
q-32 0 -59.5 1t-49.5 5q-14 -12 -29 -35t-15 -49q0 -34 26.5 -57.5t87.5 -23.5z" />
    <glyph glyph-name="Hcircumflex" unicode="&#x124;" horiz-adv-x="677" 
d="M90 0v662h97v-296h303v296h97v-662h-97v328h-303v-328h-97zM189 718l125 167h48l126 -167h-40l-110 93l-109 -93h-40z" />
    <glyph glyph-name="hcircumflex" unicode="&#x125;" horiz-adv-x="503" 
d="M76 0v683h81v-295q37 35 75 54.5t82 19.5q24 0 51.5 -12t47 -44.5t19.5 -94.5v-311h-84v301q0 47 -16.5 72.5t-61.5 25.5q-22 0 -51.5 -12.5t-58.5 -40.5v-346h-84zM102 984l125 167h48l126 -167h-40l-110 93l-109 -93h-40z" />
    <glyph glyph-name="Hbar" unicode="&#x126;" horiz-adv-x="677" 
d="M90 0v490h-74v49h74v123h97v-123h303v123h97v-123h73v-49h-73v-490h-97v328h-303v-328h-97zM187 366h303v124h-303v-124z" />
    <glyph glyph-name="hbar" unicode="&#x127;" horiz-adv-x="503" 
d="M76 0v550h-75v49h75v84h81v-84h156v-49h-156v-162q37 35 75 54.5t82 19.5q24 0 51.5 -12t47 -44.5t19.5 -94.5v-311h-84v301q0 47 -16.5 72.5t-61.5 25.5q-22 0 -51.5 -12.5t-58.5 -40.5v-346h-84z" />
    <glyph glyph-name="Itilde" unicode="&#x128;" horiz-adv-x="272" 
d="M90 0v662h92v-662h-92zM4 740l-27 15q11 26 35.5 51t66.5 38q20 0 46.5 -10t50.5 -20.5t34 -10.5q20 0 32 12t25 31l27 -15q-10 -25 -35 -50t-67 -39q-19 0 -46 10.5t-51 20.5t-34 10q-19 0 -31 -12t-26 -31z" />
    <glyph glyph-name="itilde" unicode="&#x129;" horiz-adv-x="233" 
d="M75 0v452h83v-452h-83zM-15 530l-27 15q11 26 35.5 51t66.5 38q20 0 46.5 -10t50.5 -20.5t34 -10.5q20 0 32 12t25 31l27 -15q-10 -25 -35 -50t-67 -39q-19 0 -46 10.5t-51 20.5t-34 10q-19 0 -31 -12t-26 -31z" />
    <glyph glyph-name="Imacron" unicode="&#x12a;" horiz-adv-x="272" 
d="M90 0v662h92v-662h-92zM-20 757v54h311v-54h-311z" />
    <glyph glyph-name="imacron" unicode="&#x12b;" horiz-adv-x="233" 
d="M75 0v452h83v-452h-83zM-39 547v54h311v-54h-311z" />
    <glyph glyph-name="Ibreve" unicode="&#x12c;" horiz-adv-x="272" 
d="M90 0v662h92v-662h-92zM133 718q-35 0 -67 16t-51.5 50t-19.5 86v5h29q8 -46 35.5 -71.5t75.5 -25.5q38 0 59 14t32.5 36t20.5 47h29q-1 -12 -6 -37t-19 -53t-42 -47.5t-76 -19.5z" />
    <glyph glyph-name="ibreve" unicode="&#x12d;" horiz-adv-x="233" 
d="M75 0v452h83v-452h-83zM114 507q-35 0 -67 16t-51.5 50t-19.5 86v5h29q8 -46 35.5 -71.5t75.5 -25.5q38 0 59 14t32.5 36t20.5 47h29q-1 -12 -6 -37t-19 -53t-42 -47.5t-76 -19.5z" />
    <glyph glyph-name="Iogonek" unicode="&#x12e;" horiz-adv-x="272" 
d="M90 0v662h92v-662h-92zM143 -165q-33 0 -56 20t-23 48q0 32 16.5 57t39.5 40h44q-18 -14 -32 -31.5t-14 -43.5q0 -21 13 -31t32 -10t38.5 12.5t27.5 30.5l16 -7q-10 -35 -39.5 -60t-62.5 -25z" />
    <glyph glyph-name="iogonek" unicode="&#x12f;" horiz-adv-x="233" 
d="M75 0v452h83v-452h-83zM116 541q-22 0 -36.5 16t-14.5 36q0 22 14.5 37t36.5 15q21 0 36.5 -15t15.5 -37q0 -20 -15.5 -36t-36.5 -16zM115 -155q-33 0 -56 20t-23 48q0 32 16.5 57t39.5 40h44q-18 -14 -32 -31.5t-14 -43.5q0 -21 13 -31t32 -10t38.5 12.5t27.5 30.5
l16 -7q-10 -35 -39.5 -60t-62.5 -25z" />
    <glyph glyph-name="Idotaccent" unicode="&#x130;" horiz-adv-x="272" 
d="M90 0v662h92v-662h-92zM135 751q-22 0 -36.5 16t-14.5 36q0 22 14.5 37t36.5 15q21 0 36.5 -15t15.5 -37q0 -20 -15.5 -36t-36.5 -16z" />
    <glyph glyph-name="dotlessi" unicode="&#x131;" horiz-adv-x="233" 
d="M75 0v452h83v-452h-83z" />
    <glyph glyph-name="IJ" unicode="&#x132;" horiz-adv-x="551" 
d="M90 0v662h92v-662h-92zM230 -224q-22 0 -50.5 4t-49.5 10l10 78q18 -12 43 -22t51.5 -16.5t46.5 -6.5q23 14 41 47t29 78t11 93v621h99v-621q0 -73 -31 -133t-83 -96t-117 -36z" />
    <glyph glyph-name="ij" unicode="&#x133;" horiz-adv-x="468" 
d="M75 0v452h83v-452h-83zM116 541q-22 0 -36.5 16t-14.5 36q0 22 14.5 37t36.5 15q21 0 36.5 -15t15.5 -37q0 -20 -15.5 -36t-36.5 -16zM199 -223q-18 0 -38 4t-38 8l10 65q16 -8 37 -15t41 -11t31 -4q19 10 32 33.5t20.5 53t10.5 58t3 48.5v435h85l-1 -435
q0 -68 -23.5 -122.5t-67 -86t-102.5 -31.5zM350 541q-22 0 -36.5 16t-14.5 36q0 22 14.5 37t36.5 15q21 0 36.5 -15t15.5 -37q0 -20 -15.5 -36t-36.5 -16z" />
    <glyph glyph-name="Jcircumflex" unicode="&#x134;" horiz-adv-x="279" 
d="M-42 -224q-22 0 -50.5 4t-49.5 10l10 78q18 -12 43 -22t51.5 -16.5t46.5 -6.5q23 14 41 47t29 78t11 93v621h99v-621q0 -73 -31 -133t-83 -96t-117 -36zM-10 718l125 167h48l126 -167h-40l-110 93l-109 -93h-40z" />
    <glyph glyph-name="jcircumflex" unicode="&#x135;" horiz-adv-x="235" 
d="M-34 -223q-18 0 -38 4t-38 8l10 65q16 -8 37 -15t41 -11t31 -4q19 10 32 33.5t20.5 53t10.5 58t3 48.5v435h85l-1 -435q0 -68 -23.5 -122.5t-67 -86t-102.5 -31.5zM-32 507l125 167h48l126 -167h-40l-110 93l-109 -93h-40z" />
    <glyph glyph-name="uni0136" unicode="&#x136;" horiz-adv-x="609" 
d="M481 -13l-289 339v-326h-102v662h102v-326l309 326h66l-313 -308l355 -354zM248 -292l-12 19q29 23 48 55t19 64q-21 0 -41.5 14t-20.5 41q14 21 45 37.5t60 19.5q8 -22 11 -42t3 -38q0 -62 -33 -103t-79 -67z" />
    <glyph glyph-name="uni0137" unicode="&#x137;" horiz-adv-x="493" 
d="M371 -13l-212 264v-251h-84v683h84v-423l231 192h66l-235 -178l250 -274zM190 -292l-12 19q29 23 48 55t19 64q-21 0 -41.5 14t-20.5 41q14 21 45 37.5t60 19.5q8 -22 11 -42t3 -38q0 -62 -33 -103t-79 -67z" />
    <glyph glyph-name="kgreenlandic" unicode="&#x138;" horiz-adv-x="451" 
d="M346 -13l-187 244v-231h-84v452h84v-212l201 212h76l-195 -198l200 -254z" />
    <glyph glyph-name="Lacute" unicode="&#x139;" horiz-adv-x="487" 
d="M90 0v662h98v-608q26 -7 52.5 -12.5t45.5 -5.5l181 31l-12 -67h-365zM44 717l172 188l56 -50l-188 -138h-40z" />
    <glyph glyph-name="lacute" unicode="&#x13a;" horiz-adv-x="234" 
d="M75 0v683h84v-683h-84zM20 983l172 188l56 -50l-188 -138h-40z" />
    <glyph glyph-name="uni013B" unicode="&#x13b;" horiz-adv-x="487" 
d="M90 0v662h98v-608q26 -7 52.5 -12.5t45.5 -5.5l181 31l-12 -67h-365zM207 -292l-12 19q29 23 48 55t19 64q-21 0 -41.5 14t-20.5 41q14 21 45 37.5t60 19.5q8 -22 11 -42t3 -38q0 -62 -33 -103t-79 -67z" />
    <glyph glyph-name="uni013C" unicode="&#x13c;" horiz-adv-x="234" 
d="M75 0v683h84v-683h-84zM60 -292l-12 19q29 23 48 55t19 64q-21 0 -41.5 14t-20.5 41q14 21 45 37.5t60 19.5q8 -22 11 -42t3 -38q0 -62 -33 -103t-79 -67z" />
    <glyph glyph-name="Lcaron" unicode="&#x13d;" horiz-adv-x="487" 
d="M90 0v662h98v-608q26 -7 52.5 -12.5t45.5 -5.5l181 31l-12 -67h-365zM278 468l-12 19q29 23 48 55t19 64q-21 0 -41.5 14t-20.5 41q14 21 45 37.5t60 19.5q8 -22 11 -42t3 -38q0 -62 -33 -103t-79 -67z" />
    <glyph glyph-name="lcaron" unicode="&#x13e;" horiz-adv-x="234" 
d="M75 0v683h84v-683h-84zM93 982l-126 167h40l110 -93l109 93h40l-125 -167h-48z" />
    <glyph glyph-name="Ldot" unicode="&#x13f;" horiz-adv-x="487" 
d="M90 0v662h98v-608q26 -7 52.5 -12.5t45.5 -5.5l181 31l-12 -67h-365zM323 279q-16 0 -35.5 13t-19.5 41q0 24 16.5 40.5t38.5 16.5q23 0 39.5 -17t16.5 -40q0 -28 -20 -41t-36 -13z" />
    <glyph glyph-name="ldot" unicode="&#x140;" horiz-adv-x="234" 
d="M75 0v683h84v-683h-84zM265 279q-16 0 -35.5 13t-19.5 41q0 24 16.5 40.5t38.5 16.5q23 0 39.5 -17t16.5 -40q0 -28 -20 -41t-36 -13z" />
    <glyph glyph-name="Lslash" unicode="&#x141;" horiz-adv-x="487" 
d="M90 0v296l-67 -45v54l67 45v312h98v-246l70 47v-54l-70 -47v-308q26 -7 52.5 -12.5t45.5 -5.5l181 31l-12 -67h-365z" />
    <glyph glyph-name="lslash" unicode="&#x142;" horiz-adv-x="234" 
d="M75 0v683h84v-683h-84zM10 300v49l214 144v-49z" />
    <glyph glyph-name="Nacute" unicode="&#x143;" horiz-adv-x="683" 
d="M576 -11l-438 548h-4v-537h-44v662h74l381 -481h4v481h44v-673h-17zM255 717l172 188l56 -50l-188 -138h-40z" />
    <glyph glyph-name="nacute" unicode="&#x144;" 
d="M80 0v314q0 35 -9.5 56.5t-21.5 34t-20 18.5l51 38l82 -73q37 35 69.5 55.5t76.5 20.5q23 0 50.5 -12t47.5 -44.5t20 -94.5v-313h-85v303q0 47 -16.5 72.5t-60.5 25.5q-43 0 -99 -56v-345h-85zM141 507l172 188l56 -50l-188 -138h-40z" />
    <glyph glyph-name="uni0145" unicode="&#x145;" horiz-adv-x="683" 
d="M576 -11l-438 548h-4v-537h-44v662h74l381 -481h4v481h44v-673h-17zM285 -292l-12 19q29 23 48 55t19 64q-21 0 -41.5 14t-20.5 41q14 21 45 37.5t60 19.5q8 -22 11 -42t3 -38q0 -62 -33 -103t-79 -67z" />
    <glyph glyph-name="uni0146" unicode="&#x146;" 
d="M80 0v314q0 35 -9.5 56.5t-21.5 34t-20 18.5l51 38l82 -73q37 35 69.5 55.5t76.5 20.5q23 0 50.5 -12t47.5 -44.5t20 -94.5v-313h-85v303q0 47 -16.5 72.5t-60.5 25.5q-43 0 -99 -56v-345h-85zM193 -292l-12 19q29 23 48 55t19 64q-21 0 -41.5 14t-20.5 41q14 21 45 37.5
t60 19.5q8 -22 11 -42t3 -38q0 -62 -33 -103t-79 -67z" />
    <glyph glyph-name="Ncaron" unicode="&#x147;" horiz-adv-x="683" 
d="M576 -11l-438 548h-4v-537h-44v662h74l381 -481h4v481h44v-673h-17zM328 724l-126 167h40l110 -93l109 93h40l-125 -167h-48z" />
    <glyph glyph-name="ncaron" unicode="&#x148;" 
d="M80 0v314q0 35 -9.5 56.5t-21.5 34t-20 18.5l51 38l82 -73q37 35 69.5 55.5t76.5 20.5q23 0 50.5 -12t47.5 -44.5t20 -94.5v-313h-85v303q0 47 -16.5 72.5t-60.5 25.5q-43 0 -99 -56v-345h-85zM231 506l-126 167h40l110 -93l109 93h40l-125 -167h-48z" />
    <glyph glyph-name="napostrophe" unicode="&#x149;" 
d="M80 0v314q0 35 -9.5 56.5t-21.5 34t-20 18.5l51 38l82 -73q37 35 69.5 55.5t76.5 20.5q23 0 50.5 -12t47.5 -44.5t20 -94.5v-313h-85v303q0 47 -16.5 72.5t-60.5 25.5q-43 0 -99 -56v-345h-85zM-10 468l-12 19q29 23 48 55t19 64q-21 0 -41.5 14t-20.5 41q14 21 45 37.5
t60 19.5q8 -22 11 -42t3 -38q0 -62 -33 -103t-79 -67z" />
    <glyph glyph-name="Eng" unicode="&#x14a;" horiz-adv-x="684" 
d="M400 -223q-18 0 -38 4t-38 8l10 65q16 -8 37 -15t41 -11t31 -4q19 10 32 33.5t20.5 53t10.5 58t3 48.5v6l-371 514h-4v-537h-44v662h74l381 -531h4v531h44v-645q0 -68 -23.5 -122.5t-67 -86t-102.5 -31.5z" />
    <glyph glyph-name="eng" unicode="&#x14b;" 
d="M232 -223q-18 0 -38 4t-38 8l10 65q16 -8 37 -15t41 -11t31 -4q19 10 32 33.5t20.5 53t10.5 58t3 48.5v286q0 47 -16.5 72.5t-60.5 25.5q-43 0 -99 -56v-345h-85v314q0 35 -9.5 56.5t-21.5 34t-20 18.5l51 38l82 -73q37 35 69.5 55.5t76.5 20.5q23 0 50.5 -12t47.5 -44.5
t20 -94.5l-1 -296q-2 -68 -25.5 -122.5t-66 -86t-101.5 -31.5z" />
    <glyph glyph-name="Omacron" unicode="&#x14c;" horiz-adv-x="725" 
d="M333 -12q-83 0 -151 37.5t-108 110t-40 177.5q0 82 22 143t59.5 102.5t84 67t96 37t95.5 11.5q84 0 152 -37t108 -109t40 -177q0 -82 -22 -143t-60 -103t-84.5 -68t-96 -37.5t-95.5 -11.5zM362 21q60 0 102.5 29t69 75t39 100t12.5 103q0 62 -12.5 117.5t-41 97.5t-76 66
t-118.5 24q-67 -23 -111 -70t-65 -108t-21 -127q0 -61 12.5 -116.5t38.5 -98.5t68.5 -67.5t102.5 -24.5zM207 757v54h311v-54h-311z" />
    <glyph glyph-name="omacron" unicode="&#x14d;" 
d="M229 -12q-56 0 -102 26t-73 76.5t-27 122.5q0 71 22.5 119t59 77t78.5 42t81 13q57 0 103 -26t73 -76t27 -123q0 -71 -23 -119t-59.5 -77t-78.5 -42t-81 -13zM248 22q35 0 60 19t40.5 49.5t23 65.5t7.5 68q0 55 -13.5 100.5t-45 73.5t-86.5 28q-60 -23 -88 -80t-28 -122
q0 -53 13 -99.5t41.5 -74.5t75.5 -28zM94 547v54h311v-54h-311z" />
    <glyph glyph-name="Obreve" unicode="&#x14e;" horiz-adv-x="725" 
d="M333 -12q-83 0 -151 37.5t-108 110t-40 177.5q0 82 22 143t59.5 102.5t84 67t96 37t95.5 11.5q84 0 152 -37t108 -109t40 -177q0 -82 -22 -143t-60 -103t-84.5 -68t-96 -37.5t-95.5 -11.5zM362 21q60 0 102.5 29t69 75t39 100t12.5 103q0 62 -12.5 117.5t-41 97.5t-76 66
t-118.5 24q-67 -23 -111 -70t-65 -108t-21 -127q0 -61 12.5 -116.5t38.5 -98.5t68.5 -67.5t102.5 -24.5zM360 718q-35 0 -67 16t-51.5 50t-19.5 86v5h29q8 -46 35.5 -71.5t75.5 -25.5q38 0 59 14t32.5 36t20.5 47h29q-1 -12 -6 -37t-19 -53t-42 -47.5t-76 -19.5z" />
    <glyph glyph-name="obreve" unicode="&#x14f;" 
d="M229 -12q-56 0 -102 26t-73 76.5t-27 122.5q0 71 22.5 119t59 77t78.5 42t81 13q57 0 103 -26t73 -76t27 -123q0 -71 -23 -119t-59.5 -77t-78.5 -42t-81 -13zM248 22q35 0 60 19t40.5 49.5t23 65.5t7.5 68q0 55 -13.5 100.5t-45 73.5t-86.5 28q-60 -23 -88 -80t-28 -122
q0 -53 13 -99.5t41.5 -74.5t75.5 -28zM247 507q-35 0 -67 16t-51.5 50t-19.5 86v5h29q8 -46 35.5 -71.5t75.5 -25.5q38 0 59 14t32.5 36t20.5 47h29q-1 -12 -6 -37t-19 -53t-42 -47.5t-76 -19.5z" />
    <glyph glyph-name="Ohungarumlaut" unicode="&#x150;" horiz-adv-x="725" 
d="M333 -12q-83 0 -151 37.5t-108 110t-40 177.5q0 82 22 143t59.5 102.5t84 67t96 37t95.5 11.5q84 0 152 -37t108 -109t40 -177q0 -82 -22 -143t-60 -103t-84.5 -68t-96 -37.5t-95.5 -11.5zM362 21q60 0 102.5 29t69 75t39 100t12.5 103q0 62 -12.5 117.5t-41 97.5t-76 66
t-118.5 24q-67 -23 -111 -70t-65 -108t-21 -127q0 -61 12.5 -116.5t38.5 -98.5t68.5 -67.5t102.5 -24.5zM366 717l172 188l56 -50l-188 -138h-40zM211 717l172 188l56 -50l-188 -138h-40z" />
    <glyph glyph-name="ohungarumlaut" unicode="&#x151;" 
d="M229 -12q-56 0 -102 26t-73 76.5t-27 122.5q0 71 22.5 119t59 77t78.5 42t81 13q57 0 103 -26t73 -76t27 -123q0 -71 -23 -119t-59.5 -77t-78.5 -42t-81 -13zM248 22q35 0 60 19t40.5 49.5t23 65.5t7.5 68q0 55 -13.5 100.5t-45 73.5t-86.5 28q-60 -23 -88 -80t-28 -122
q0 -53 13 -99.5t41.5 -74.5t75.5 -28zM254 507l172 188l56 -50l-188 -138h-40zM99 507l172 188l56 -50l-188 -138h-40z" />
    <glyph glyph-name="OE" unicode="&#x152;" horiz-adv-x="889" 
d="M343 0q-85 0 -155.5 36t-112 106t-41.5 170q0 79 23 137.5t61.5 99t86.5 65.5t99 36t98 11h416v-67l-211 31q-29 0 -54 -4.5t-54 -12.5v-242h237v-38h-237v-292l325 31v-67h-481zM372 32h15.5t14.5 1v586q-15 3 -30 3q-75 0 -126 -37t-77 -103t-26 -154
q0 -81 27.5 -148.5t79 -107.5t122.5 -40z" />
    <glyph glyph-name="oe" unicode="&#x153;" horiz-adv-x="791" 
d="M225 -13q-54 0 -98.5 26t-71 76.5t-26.5 122.5q0 71 22 119t57.5 77t76.5 42t78 13q52 0 92 -23.5t63 -68.5q32 45 80 68t101 23q47 0 85.5 -24.5t62 -72.5t23.5 -120h-319q0 -78 24.5 -122.5t64 -62.5t82.5 -18q39 0 69 8t55 19v-35q-31 -18 -71 -32.5t-86 -14.5
q-60 0 -107.5 23.5t-76.5 68.5q-33 -50 -83 -71t-97 -21zM243 31q39 0 68 29t44.5 73.5t15.5 90.5q0 51 -16 94.5t-47.5 70t-80.5 26.5q-38 -15 -62.5 -46t-36 -69t-11.5 -76q1 -52 12 -96t38.5 -70.5t75.5 -26.5zM455 275h234q-3 45 -19.5 72.5t-39 42.5t-45 20t-37.5 5
q-34 -16 -59.5 -53t-33.5 -87z" />
    <glyph glyph-name="Racute" unicode="&#x154;" horiz-adv-x="638" 
d="M497 -14l-232 330h-77v-316h-98v662h216q65 0 117 -19.5t82.5 -57t30.5 -92.5q0 -71 -54 -112.5t-137 -56.5l268 -324zM188 346h64q73 0 111.5 21t53.5 53.5t15 67.5q0 5 -2.5 22.5t-12.5 40t-32.5 43t-62.5 31.5q-29 0 -68.5 -5t-65.5 -12v-262zM222 717l172 188l56 -50
l-188 -138h-40z" />
    <glyph glyph-name="racute" unicode="&#x155;" horiz-adv-x="318" 
d="M64 0v452h58l23 -84q13 22 36.5 44t54 38.5t62.5 21.5l10 -69q-26 0 -56 -11t-57.5 -28t-46.5 -35v-329h-84zM55 507l172 188l56 -50l-188 -138h-40z" />
    <glyph glyph-name="uni0156" unicode="&#x156;" horiz-adv-x="638" 
d="M497 -14l-232 330h-77v-316h-98v662h216q65 0 117 -19.5t82.5 -57t30.5 -92.5q0 -71 -54 -112.5t-137 -56.5l268 -324zM188 346h64q73 0 111.5 21t53.5 53.5t15 67.5q0 5 -2.5 22.5t-12.5 40t-32.5 43t-62.5 31.5q-29 0 -68.5 -5t-65.5 -12v-262zM262 -292l-12 19
q29 23 48 55t19 64q-21 0 -41.5 14t-20.5 41q14 21 45 37.5t60 19.5q8 -22 11 -42t3 -38q0 -62 -33 -103t-79 -67z" />
    <glyph glyph-name="uni0157" unicode="&#x157;" horiz-adv-x="318" 
d="M64 0v452h58l23 -84q13 22 36.5 44t54 38.5t62.5 21.5l10 -69q-26 0 -56 -11t-57.5 -28t-46.5 -35v-329h-84zM52 -292l-12 19q29 23 48 55t19 64q-21 0 -41.5 14t-20.5 41q14 21 45 37.5t60 19.5q8 -22 11 -42t3 -38q0 -62 -33 -103t-79 -67z" />
    <glyph glyph-name="Rcaron" unicode="&#x158;" horiz-adv-x="638" 
d="M497 -14l-232 330h-77v-316h-98v662h216q65 0 117 -19.5t82.5 -57t30.5 -92.5q0 -71 -54 -112.5t-137 -56.5l268 -324zM188 346h64q73 0 111.5 21t53.5 53.5t15 67.5q0 5 -2.5 22.5t-12.5 40t-32.5 43t-62.5 31.5q-29 0 -68.5 -5t-65.5 -12v-262zM295 724l-126 167h40
l110 -93l109 93h40l-125 -167h-48z" />
    <glyph glyph-name="rcaron" unicode="&#x159;" horiz-adv-x="318" 
d="M64 0v452h58l23 -84q13 22 36.5 44t54 38.5t62.5 21.5l10 -69q-26 0 -56 -11t-57.5 -28t-46.5 -35v-329h-84zM145 506l-126 167h40l110 -93l109 93h40l-125 -167h-48z" />
    <glyph glyph-name="Sacute" unicode="&#x15a;" horiz-adv-x="556" 
d="M262 -12q-59 0 -111.5 14t-81.5 25v47q17 -8 46 -20.5t64 -21.5t68 -9q66 0 106.5 34.5t40.5 97.5q0 39 -23 67t-59.5 51t-77.5 44.5t-77.5 47t-59.5 60t-23 81.5q0 39 21 77.5t67 64.5t121 26q41 0 89 -10t83 -21l-10 -68q-58 25 -115 41.5t-116 16.5
q-29 -14 -40.5 -36.5t-11.5 -49.5q0 -40 24 -70.5t62.5 -56t81 -49.5t81 -52t62.5 -63t24 -82q0 -52 -26 -94.5t-78 -67t-131 -24.5zM191 717l172 188l56 -50l-188 -138h-40z" />
    <glyph glyph-name="sacute" unicode="&#x15b;" horiz-adv-x="372" 
d="M168 -12q-44 0 -82.5 13t-57.5 23v38q12 -6 33.5 -14t47 -14t48.5 -6q53 0 76 24t23 49q0 30 -22 51t-54.5 38.5t-65.5 37.5t-55 47.5t-22 68.5q0 27 13.5 54.5t44 46.5t82.5 19q53 0 87.5 -9.5t51.5 -16.5l-10 -66q-40 22 -76 34t-61 16q-27 0 -43 -20t-16 -42
q0 -29 23 -49.5t57 -38.5t67.5 -38t56.5 -47t23 -68q0 -54 -43.5 -92.5t-125.5 -38.5zM72 507l172 188l56 -50l-188 -138h-40z" />
    <glyph glyph-name="Scircumflex" unicode="&#x15c;" horiz-adv-x="556" 
d="M262 -12q-59 0 -111.5 14t-81.5 25v47q17 -8 46 -20.5t64 -21.5t68 -9q66 0 106.5 34.5t40.5 97.5q0 39 -23 67t-59.5 51t-77.5 44.5t-77.5 47t-59.5 60t-23 81.5q0 39 21 77.5t67 64.5t121 26q41 0 89 -10t83 -21l-10 -68q-58 25 -115 41.5t-116 16.5
q-29 -14 -40.5 -36.5t-11.5 -49.5q0 -40 24 -70.5t62.5 -56t81 -49.5t81 -52t62.5 -63t24 -82q0 -52 -26 -94.5t-78 -67t-131 -24.5zM138 718l125 167h48l126 -167h-40l-110 93l-109 -93h-40z" />
    <glyph glyph-name="scircumflex" unicode="&#x15d;" horiz-adv-x="372" 
d="M168 -12q-44 0 -82.5 13t-57.5 23v38q12 -6 33.5 -14t47 -14t48.5 -6q53 0 76 24t23 49q0 30 -22 51t-54.5 38.5t-65.5 37.5t-55 47.5t-22 68.5q0 27 13.5 54.5t44 46.5t82.5 19q53 0 87.5 -9.5t51.5 -16.5l-10 -66q-40 22 -76 34t-61 16q-27 0 -43 -20t-16 -42
q0 -29 23 -49.5t57 -38.5t67.5 -38t56.5 -47t23 -68q0 -54 -43.5 -92.5t-125.5 -38.5zM36 507l125 167h48l126 -167h-40l-110 93l-109 -93h-40z" />
    <glyph glyph-name="Scedilla" unicode="&#x15e;" horiz-adv-x="556" 
d="M262 -12q-59 0 -111.5 14t-81.5 25v47q17 -8 46 -20.5t64 -21.5t68 -9q66 0 106.5 34.5t40.5 97.5q0 39 -23 67t-59.5 51t-77.5 44.5t-77.5 47t-59.5 60t-23 81.5q0 39 21 77.5t67 64.5t121 26q41 0 89 -10t83 -21l-10 -68q-58 25 -115 41.5t-116 16.5
q-29 -14 -40.5 -36.5t-11.5 -49.5q0 -40 24 -70.5t62.5 -56t81 -49.5t81 -52t62.5 -63t24 -82q0 -52 -26 -94.5t-78 -67t-131 -24.5zM261 -215q-19 0 -45 4.5t-43 11.5l14 31q13 -5 34.5 -8.5t27.5 -3.5q24 0 41 11.5t17 27.5q-12 23 -35 32t-52 9l40 100h35l-25 -65
q31 0 63 -17t49 -50q0 -34 -35.5 -58.5t-85.5 -24.5z" />
    <glyph glyph-name="scedilla" unicode="&#x15f;" horiz-adv-x="372" 
d="M168 -12q-44 0 -82.5 13t-57.5 23v38q12 -6 33.5 -14t47 -14t48.5 -6q53 0 76 24t23 49q0 30 -22 51t-54.5 38.5t-65.5 37.5t-55 47.5t-22 68.5q0 27 13.5 54.5t44 46.5t82.5 19q53 0 87.5 -9.5t51.5 -16.5l-10 -66q-40 22 -76 34t-61 16q-27 0 -43 -20t-16 -42
q0 -29 23 -49.5t57 -38.5t67.5 -38t56.5 -47t23 -68q0 -54 -43.5 -92.5t-125.5 -38.5zM169 -215q-19 0 -45 4.5t-43 11.5l14 31q13 -5 34.5 -8.5t27.5 -3.5q24 0 41 11.5t17 27.5q-12 23 -35 32t-52 9l40 100h35l-25 -65q31 0 63 -17t49 -50q0 -34 -35.5 -58.5t-85.5 -24.5z
" />
    <glyph glyph-name="Scaron" unicode="&#x160;" horiz-adv-x="556" 
d="M262 -12q-59 0 -111.5 14t-81.5 25v47q17 -8 46 -20.5t64 -21.5t68 -9q66 0 106.5 34.5t40.5 97.5q0 39 -23 67t-59.5 51t-77.5 44.5t-77.5 47t-59.5 60t-23 81.5q0 39 21 77.5t67 64.5t121 26q41 0 89 -10t83 -21l-10 -68q-58 25 -115 41.5t-116 16.5
q-29 -14 -40.5 -36.5t-11.5 -49.5q0 -40 24 -70.5t62.5 -56t81 -49.5t81 -52t62.5 -63t24 -82q0 -52 -26 -94.5t-78 -67t-131 -24.5zM264 724l-126 167h40l110 -93l109 93h40l-125 -167h-48z" />
    <glyph glyph-name="scaron" unicode="&#x161;" horiz-adv-x="372" 
d="M168 -12q-44 0 -82.5 13t-57.5 23v38q12 -6 33.5 -14t47 -14t48.5 -6q53 0 76 24t23 49q0 30 -22 51t-54.5 38.5t-65.5 37.5t-55 47.5t-22 68.5q0 27 13.5 54.5t44 46.5t82.5 19q53 0 87.5 -9.5t51.5 -16.5l-10 -66q-40 22 -76 34t-61 16q-27 0 -43 -20t-16 -42
q0 -29 23 -49.5t57 -38.5t67.5 -38t56.5 -47t23 -68q0 -54 -43.5 -92.5t-125.5 -38.5zM162 506l-126 167h40l110 -93l109 93h40l-125 -167h-48z" />
    <glyph glyph-name="uni0162" unicode="&#x162;" horiz-adv-x="535" 
d="M219 0v614q-16 4 -32 6t-36 2l-135 -31l-6 71h515l-5 -71l-136 31q-20 0 -36 -2t-32 -6v-614h-97zM251 -215q-19 0 -45 4.5t-43 11.5l14 31q13 -5 34.5 -8.5t27.5 -3.5q24 0 41 11.5t17 27.5q-12 23 -35 32t-52 9l40 100h35l-25 -65q31 0 63 -17t49 -50
q0 -34 -35.5 -58.5t-85.5 -24.5z" />
    <glyph glyph-name="uni0163" unicode="&#x163;" horiz-adv-x="329" 
d="M188 -12q-41 0 -69 24t-28 81v323l-81 16v20h81v36l84 61v-97h119v-36h-119v-328q0 -28 11.5 -44t43.5 -16q14 0 31 4.5t33 10.5v-28q-22 -10 -49.5 -18.5t-56.5 -8.5zM148 -215q-19 0 -45 4.5t-43 11.5l14 31q13 -5 34.5 -8.5t27.5 -3.5q24 0 41 11.5t17 27.5
q-12 23 -35 32t-52 9l40 100h35l-25 -65q31 0 63 -17t49 -50q0 -34 -35.5 -58.5t-85.5 -24.5z" />
    <glyph glyph-name="Tcaron" unicode="&#x164;" horiz-adv-x="535" 
d="M219 0v614q-16 4 -32 6t-36 2l-135 -31l-6 71h515l-5 -71l-136 31q-20 0 -36 -2t-32 -6v-614h-97zM244 724l-126 167h40l110 -93l109 93h40l-125 -167h-48z" />
    <glyph glyph-name="tcaron" unicode="&#x165;" horiz-adv-x="329" 
d="M188 -12q-41 0 -69 24t-28 81v323l-81 16v20h81v36l84 61v-97h119v-36h-119v-328q0 -28 11.5 -44t43.5 -16q14 0 31 4.5t33 10.5v-28q-22 -10 -49.5 -18.5t-56.5 -8.5zM236 468l-12 19q29 23 48 55t19 64q-21 0 -41.5 14t-20.5 41q14 21 45 37.5t60 19.5q8 -22 11 -42
t3 -38q0 -62 -33 -103t-79 -67z" />
    <glyph glyph-name="Tbar" unicode="&#x166;" horiz-adv-x="535" 
d="M219 0v614q-16 4 -32 6t-36 2l-135 -31l-6 71h515l-5 -71l-136 31q-20 0 -36 -2t-32 -6v-614h-97zM72 323v49h390v-49h-390z" />
    <glyph glyph-name="tbar" unicode="&#x167;" horiz-adv-x="329" 
d="M188 -12q-41 0 -69 24t-28 81v140h-91v49h91v134l-81 16v20h81v36l84 61v-97h119v-36h-119v-134h98v-49h-98v-145q0 -28 11.5 -44t43.5 -16q14 0 31 4.5t33 10.5v-28q-22 -10 -49.5 -18.5t-56.5 -8.5z" />
    <glyph glyph-name="Utilde" unicode="&#x168;" horiz-adv-x="657" 
d="M323 -12q-74 0 -121 20.5t-73.5 52t-37.5 67t-13.5 66.5t-2.5 49v419h102v-427q0 -19 1.5 -45.5t9.5 -53.5t26.5 -51t51.5 -38.5t85 -14.5q86 0 136.5 46t50.5 154v430h44v-406q0 -24 -2.5 -58t-14 -70.5t-39 -68.5t-76.5 -51.5t-127 -19.5zM217 740l-27 15
q11 26 35.5 51t66.5 38q20 0 46.5 -10t50.5 -20.5t34 -10.5q20 0 32 12t25 31l27 -15q-10 -25 -35 -50t-67 -39q-19 0 -46 10.5t-51 20.5t-34 10q-19 0 -31 -12t-26 -31z" />
    <glyph glyph-name="utilde" unicode="&#x169;" horiz-adv-x="480" 
d="M169 -12q-23 0 -50.5 11.5t-47.5 44t-20 93.5v315h85v-320q0 -46 16.5 -71.5t60.5 -25.5q23 0 49 18t50 46v353h85v-318q0 -34 9.5 -55.5t22 -34t20.5 -19.5l-52 -37l-81 73q-37 -35 -70 -54t-77 -19zM108 530l-27 15q11 26 35.5 51t66.5 38q20 0 46.5 -10t50.5 -20.5
t34 -10.5q20 0 32 12t25 31l27 -15q-10 -25 -35 -50t-67 -39q-19 0 -46 10.5t-51 20.5t-34 10q-19 0 -31 -12t-26 -31z" />
    <glyph glyph-name="Umacron" unicode="&#x16a;" horiz-adv-x="657" 
d="M323 -12q-74 0 -121 20.5t-73.5 52t-37.5 67t-13.5 66.5t-2.5 49v419h102v-427q0 -19 1.5 -45.5t9.5 -53.5t26.5 -51t51.5 -38.5t85 -14.5q86 0 136.5 46t50.5 154v430h44v-406q0 -24 -2.5 -58t-14 -70.5t-39 -68.5t-76.5 -51.5t-127 -19.5zM193 757v54h311v-54h-311z
" />
    <glyph glyph-name="umacron" unicode="&#x16b;" horiz-adv-x="480" 
d="M169 -12q-23 0 -50.5 11.5t-47.5 44t-20 93.5v315h85v-320q0 -46 16.5 -71.5t60.5 -25.5q23 0 49 18t50 46v353h85v-318q0 -34 9.5 -55.5t22 -34t20.5 -19.5l-52 -37l-81 73q-37 -35 -70 -54t-77 -19zM84 547v54h311v-54h-311z" />
    <glyph glyph-name="Ubreve" unicode="&#x16c;" horiz-adv-x="657" 
d="M323 -12q-74 0 -121 20.5t-73.5 52t-37.5 67t-13.5 66.5t-2.5 49v419h102v-427q0 -19 1.5 -45.5t9.5 -53.5t26.5 -51t51.5 -38.5t85 -14.5q86 0 136.5 46t50.5 154v430h44v-406q0 -24 -2.5 -58t-14 -70.5t-39 -68.5t-76.5 -51.5t-127 -19.5zM346 718q-35 0 -67 16
t-51.5 50t-19.5 86v5h29q8 -46 35.5 -71.5t75.5 -25.5q38 0 59 14t32.5 36t20.5 47h29q-1 -12 -6 -37t-19 -53t-42 -47.5t-76 -19.5z" />
    <glyph glyph-name="ubreve" unicode="&#x16d;" horiz-adv-x="480" 
d="M169 -12q-23 0 -50.5 11.5t-47.5 44t-20 93.5v315h85v-320q0 -46 16.5 -71.5t60.5 -25.5q23 0 49 18t50 46v353h85v-318q0 -34 9.5 -55.5t22 -34t20.5 -19.5l-52 -37l-81 73q-37 -35 -70 -54t-77 -19zM237 507q-35 0 -67 16t-51.5 50t-19.5 86v5h29q8 -46 35.5 -71.5
t75.5 -25.5q38 0 59 14t32.5 36t20.5 47h29q-1 -12 -6 -37t-19 -53t-42 -47.5t-76 -19.5z" />
    <glyph glyph-name="Uring" unicode="&#x16e;" horiz-adv-x="657" 
d="M323 -12q-74 0 -121 20.5t-73.5 52t-37.5 67t-13.5 66.5t-2.5 49v419h102v-427q0 -19 1.5 -45.5t9.5 -53.5t26.5 -51t51.5 -38.5t85 -14.5q86 0 136.5 46t50.5 154v430h44v-406q0 -24 -2.5 -58t-14 -70.5t-39 -68.5t-76.5 -51.5t-127 -19.5zM348 722q-43 0 -71 29.5
t-28 69.5q0 41 28.5 70.5t70.5 29.5q41 0 70.5 -29.5t29.5 -70.5t-29.5 -70t-70.5 -29zM347 756q29 0 48 19t19 46t-19 46.5t-47 19.5q-22 0 -36.5 -11t-21.5 -26.5t-7 -27.5t6.5 -27.5t21 -27t36.5 -11.5z" />
    <glyph glyph-name="uring" unicode="&#x16f;" horiz-adv-x="480" 
d="M169 -12q-23 0 -50.5 11.5t-47.5 44t-20 93.5v315h85v-320q0 -46 16.5 -71.5t60.5 -25.5q23 0 49 18t50 46v353h85v-318q0 -34 9.5 -55.5t22 -34t20.5 -19.5l-52 -37l-81 73q-37 -35 -70 -54t-77 -19zM239 512q-43 0 -71 29.5t-28 69.5q0 41 28.5 70.5t70.5 29.5
q41 0 70.5 -29.5t29.5 -70.5t-29.5 -70t-70.5 -29zM238 546q29 0 48 19t19 46t-19 46.5t-47 19.5q-22 0 -36.5 -11t-21.5 -26.5t-7 -27.5t6.5 -27.5t21 -27t36.5 -11.5z" />
    <glyph glyph-name="Uhungarumlaut" unicode="&#x170;" horiz-adv-x="657" 
d="M323 -12q-74 0 -121 20.5t-73.5 52t-37.5 67t-13.5 66.5t-2.5 49v419h102v-427q0 -19 1.5 -45.5t9.5 -53.5t26.5 -51t51.5 -38.5t85 -14.5q86 0 136.5 46t50.5 154v430h44v-406q0 -24 -2.5 -58t-14 -70.5t-39 -68.5t-76.5 -51.5t-127 -19.5zM352 717l172 188l56 -50
l-188 -138h-40zM197 717l172 188l56 -50l-188 -138h-40z" />
    <glyph glyph-name="uhungarumlaut" unicode="&#x171;" horiz-adv-x="480" 
d="M169 -12q-23 0 -50.5 11.5t-47.5 44t-20 93.5v315h85v-320q0 -46 16.5 -71.5t60.5 -25.5q23 0 49 18t50 46v353h85v-318q0 -34 9.5 -55.5t22 -34t20.5 -19.5l-52 -37l-81 73q-37 -35 -70 -54t-77 -19zM244 507l172 188l56 -50l-188 -138h-40zM89 507l172 188l56 -50
l-188 -138h-40z" />
    <glyph glyph-name="Uogonek" unicode="&#x172;" horiz-adv-x="657" 
d="M323 -12q-74 0 -121 20.5t-73.5 52t-37.5 67t-13.5 66.5t-2.5 49v419h102v-427q0 -19 1.5 -45.5t9.5 -53.5t26.5 -51t51.5 -38.5t85 -14.5q86 0 136.5 46t50.5 154v430h44v-406q0 -24 -2.5 -58t-14 -70.5t-39 -68.5t-76.5 -51.5t-127 -19.5zM401 -165q-33 0 -56 20
t-23 48q0 32 16.5 57t39.5 40h44q-18 -14 -32 -31.5t-14 -43.5q0 -21 13 -31t32 -10t38.5 12.5t27.5 30.5l16 -7q-10 -35 -39.5 -60t-62.5 -25z" />
    <glyph glyph-name="uogonek" unicode="&#x173;" horiz-adv-x="480" 
d="M169 -12q-23 0 -50.5 11.5t-47.5 44t-20 93.5v315h85v-320q0 -46 16.5 -71.5t60.5 -25.5q23 0 49 18t50 46v353h85v-318q0 -34 9.5 -55.5t22 -34t20.5 -19.5l-52 -37l-81 73q-37 -35 -70 -54t-77 -19zM407 -155q-33 0 -56 20t-23 48q0 32 16.5 57t39.5 40h44
q-18 -14 -32 -31.5t-14 -43.5q0 -21 13 -31t32 -10t38.5 12.5t27.5 30.5l16 -7q-10 -35 -39.5 -60t-62.5 -25z" />
    <glyph glyph-name="Wcircumflex" unicode="&#x174;" horiz-adv-x="856" 
d="M263 -15l-253 677h109l176 -542l112 334l-78 208h109l176 -542l182 542h50l-248 -677h-16l-153 410l-150 -410h-16zM278 718l125 167h48l126 -167h-40l-110 93l-109 -93h-40z" />
    <glyph glyph-name="wcircumflex" unicode="&#x175;" horiz-adv-x="684" 
d="M205 -13l-195 465h92l133 -353l90 246l-45 107h92l133 -353l130 353h39l-183 -465h-16l-132 312l-123 -312h-15zM192 507l125 167h48l126 -167h-40l-110 93l-109 -93h-40z" />
    <glyph glyph-name="Ycircumflex" unicode="&#x176;" horiz-adv-x="557" 
d="M246 0v246l-226 416h109l185 -380l173 380h50l-194 -411v-251h-97zM129 718l125 167h48l126 -167h-40l-110 93l-109 -93h-40z" />
    <glyph glyph-name="ycircumflex" unicode="&#x177;" horiz-adv-x="441" 
d="M5 -220l14 73q56 2 95.5 25t66.5 57.5t44 69.5l-203 447h89l153 -339l118 339h38l-171 -467q-22 -60 -59 -106t-84.5 -72t-100.5 -27zM81 507l125 167h48l126 -167h-40l-110 93l-109 -93h-40z" />
    <glyph glyph-name="Ydieresis" unicode="&#x178;" horiz-adv-x="557" 
d="M246 0v246l-226 416h109l185 -380l173 380h50l-194 -411v-251h-97zM377 751q-21 0 -35.5 14.5t-14.5 35.5t14.5 35.5t35.5 14.5t35.5 -14.5t14.5 -35.5t-14.5 -35.5t-35.5 -14.5zM180 751q-21 0 -35.5 14.5t-14.5 35.5t14.5 35.5t35.5 14.5t35.5 -14.5t14.5 -35.5
t-14.5 -35.5t-35.5 -14.5z" />
    <glyph glyph-name="Zacute" unicode="&#x179;" horiz-adv-x="571" 
d="M16 0v10l382 599q-28 8 -53.5 12.5t-55.5 4.5l-206 -31l-10 67h468v-10l-394 -612l359 27l10 -67h-500zM189 717l172 188l56 -50l-188 -138h-40z" />
    <glyph glyph-name="zacute" unicode="&#x17a;" horiz-adv-x="444" 
d="M45 0v30l267 389l-246 -9l-10 42h347v-28l-266 -388l269 11l10 -47h-371zM108 507l172 188l56 -50l-188 -138h-40z" />
    <glyph glyph-name="Zdotaccent" unicode="&#x17b;" horiz-adv-x="571" 
d="M16 0v10l382 599q-28 8 -53.5 12.5t-55.5 4.5l-206 -31l-10 67h468v-10l-394 -612l359 27l10 -67h-500zM285 751q-22 0 -36.5 16t-14.5 36q0 22 14.5 37t36.5 15q21 0 36.5 -15t15.5 -37q0 -20 -15.5 -36t-36.5 -16z" />
    <glyph glyph-name="zdotaccent" unicode="&#x17c;" horiz-adv-x="444" 
d="M45 0v30l267 389l-246 -9l-10 42h347v-28l-266 -388l269 11l10 -47h-371zM221 541q-22 0 -36.5 16t-14.5 36q0 22 14.5 37t36.5 15q21 0 36.5 -15t15.5 -37q0 -20 -15.5 -36t-36.5 -16z" />
    <glyph glyph-name="Zcaron" unicode="&#x17d;" horiz-adv-x="571" 
d="M16 0v10l382 599q-28 8 -53.5 12.5t-55.5 4.5l-206 -31l-10 67h468v-10l-394 -612l359 27l10 -67h-500zM262 724l-126 167h40l110 -93l109 93h40l-125 -167h-48z" />
    <glyph glyph-name="zcaron" unicode="&#x17e;" horiz-adv-x="444" 
d="M45 0v30l267 389l-246 -9l-10 42h347v-28l-266 -388l269 11l10 -47h-371zM198 506l-126 167h40l110 -93l109 93h40l-125 -167h-48z" />
    <glyph glyph-name="florin" unicode="&#x192;" 
d="M71 -189q-18 0 -37.5 4.5t-36.5 10.5l12 39q34 -8 65 -8q35 0 53.5 17.5t27 43.5t10.5 49l41 393h-104v38h108l6 55q22 222 197 222q14 0 36.5 -3.5t39.5 -8.5l-10 -65q-25 9 -53 18t-51 13q-24 -10 -38 -30t-22 -55t-15 -91l-7 -55h132v-38h-137l-46 -354
q-14 -109 -58.5 -152t-112.5 -43z" />
    <glyph glyph-name="uni01CD" unicode="&#x1cd;" horiz-adv-x="629" 
d="M10 0l297 678h15l297 -678h-109l-75 180h-297l-74 -180h-54zM153 218h266l-132 324zM291 724l-126 167h40l110 -93l109 93h40l-125 -167h-48z" />
    <glyph glyph-name="uni01CE" unicode="&#x1ce;" horiz-adv-x="444" 
d="M367 -13l-81 73q-36 -33 -70.5 -52.5t-75.5 -19.5t-74 27t-33 77q0 39 26 65.5t66 42.5t83 24t77 10v94q0 83 -96 83q-25 0 -57.5 -5.5t-72.5 -18.5l-9 25q11 9 37 21t60 21.5t69 9.5q57 0 88 -16.5t44 -42t16 -53t3 -49.5v-170q0 -34 9.5 -56t22 -34t20.5 -18zM178 34
q24 5 48.5 19.5t41.5 30t17 22.5v103q-75 -5 -119.5 -32.5t-44.5 -58.5t16.5 -53.5t40.5 -30.5zM204 506l-126 167h40l110 -93l109 93h40l-125 -167h-48z" />
    <glyph glyph-name="Aringacute" unicode="&#x1fa;" horiz-adv-x="629" 
d="M10 0l297 678h15l297 -678h-109l-75 180h-297l-74 -180h-54zM153 218h266l-132 324zM314 722q-43 0 -71 29.5t-28 69.5q0 41 28.5 70.5t70.5 29.5q14 0 28 -4l95 104l56 -50l-108 -79q29 -30 29 -71t-29.5 -70t-70.5 -29zM313 756q29 0 48 19t19 46t-19 46.5t-47 19.5
q-22 0 -36.5 -11t-21.5 -26.5t-7 -27.5t6.5 -27.5t21 -27t36.5 -11.5z" />
    <glyph glyph-name="aringacute" unicode="&#x1fb;" horiz-adv-x="444" 
d="M367 -13l-81 73q-36 -33 -70.5 -52.5t-75.5 -19.5t-74 27t-33 77q0 39 26 65.5t66 42.5t83 24t77 10v94q0 83 -96 83q-25 0 -57.5 -5.5t-72.5 -18.5l-9 25q11 9 37 21t60 21.5t69 9.5q57 0 88 -16.5t44 -42t16 -53t3 -49.5v-170q0 -34 9.5 -56t22 -34t20.5 -18zM178 34
q24 5 48.5 19.5t41.5 30t17 22.5v103q-75 -5 -119.5 -32.5t-44.5 -58.5t16.5 -53.5t40.5 -30.5zM227 512q-43 0 -71 29.5t-28 69.5q0 41 28.5 70.5t70.5 29.5q41 0 70.5 -29.5t29.5 -70.5t-29.5 -70t-70.5 -29zM226 546q29 0 48 19t19 46t-19 46.5t-47 19.5q-22 0 -36.5 -11
t-21.5 -26.5t-7 -27.5t6.5 -27.5t21 -27t36.5 -11.5zM114 766l172 188l56 -50l-188 -138h-40z" />
    <glyph glyph-name="AEacute" unicode="&#x1fc;" horiz-adv-x="862" 
d="M10 0l365 661h416v-67l-211 31q-29 0 -54 -4.5t-54 -12.5v-242h237v-38h-237v-292l325 31v-67h-422v180h-217l-94 -180h-54zM178 218h197v375zM464 717l172 188l56 -50l-188 -138h-40z" />
    <glyph glyph-name="aeacute" unicode="&#x1fd;" horiz-adv-x="704" 
d="M140 -11q-41 0 -74 27.5t-33 77.5q0 39 26 65.5t66 42.5t83 24t77 10v92q0 83 -96 83q-25 0 -57.5 -5.5t-72.5 -18.5l-9 25q11 9 37 21t60 21.5t69 9.5q61 0 92 -19.5t44 -46.5q32 32 73.5 49t86.5 17q47 0 85.5 -24.5t62 -72.5t23.5 -120h-316v-47q8 -59 33.5 -93.5
t61 -48.5t73.5 -14q39 0 69 8t55 19v-35q-31 -18 -71 -32.5t-86 -14.5q-60 0 -108 24.5t-77 70.5q-24 -22 -55 -44t-63 -36.5t-59 -14.5zM368 277h234q-3 45 -19.5 72.5t-39 42.5t-45 20t-37.5 5q-34 -16 -59.5 -53t-33.5 -87zM178 36q21 4 47.5 19.5t48 34t27.5 29.5
q-7 20 -11.5 43t-4.5 49q-75 -5 -119.5 -32.5t-44.5 -58.5t16.5 -53.5t40.5 -30.5zM288 507l172 188l56 -50l-188 -138h-40z" />
    <glyph glyph-name="Oslashacute" unicode="&#x1fe;" horiz-adv-x="725" 
d="M266 717l172 188l56 -50l-188 -138h-40zM163 -67l37 83q-74 35 -120 110t-46 187q0 82 22 143t59.5 102.5t84 67t96 37t95.5 11.5q50 0 95 -13l30 67h46l-36 -82q74 -35 119.5 -109t45.5 -186q0 -82 -22 -143t-60 -103t-84.5 -68t-96 -37.5t-95.5 -11.5q-48 0 -91 13
l-30 -68h-49zM140 328q0 -78 20 -146t65 -110l237 533q-25 14 -56 21t-69 7q-67 -23 -111 -70t-65 -108t-21 -127zM362 21q60 0 102.5 29t69 75t39 100t12.5 103q0 78 -20 144.5t-68 108.5l-236 -536q44 -24 101 -24z" />
    <glyph glyph-name="oslashacute" unicode="&#x1ff;" 
d="M136 507l172 188l56 -50l-188 -138h-40zM51 -68l57 95q-37 28 -59 74.5t-22 111.5q0 71 22.5 119t59 77t78.5 42t81 13q50 0 91 -20l45 75h46l-57 -96q36 -28 57 -74.5t21 -109.5q0 -71 -23 -119t-59.5 -77t-78.5 -42t-81 -13q-46 0 -85 18l-44 -74h-49zM118 224
q0 -38 6.5 -73t20.5 -63l182 304q-16 16 -39.5 25t-53.5 9q-60 -23 -88 -80t-28 -122zM248 22q35 0 60 19t40.5 49.5t23 65.5t7.5 68q0 38 -6 72t-20 61l-182 -305q15 -14 34 -22t43 -8z" />
    <glyph glyph-name="uni0218" unicode="&#x218;" horiz-adv-x="556" 
d="M262 -12q-59 0 -111.5 14t-81.5 25v47q17 -8 46 -20.5t64 -21.5t68 -9q66 0 106.5 34.5t40.5 97.5q0 39 -23 67t-59.5 51t-77.5 44.5t-77.5 47t-59.5 60t-23 81.5q0 39 21 77.5t67 64.5t121 26q41 0 89 -10t83 -21l-10 -68q-58 25 -115 41.5t-116 16.5
q-29 -14 -40.5 -36.5t-11.5 -49.5q0 -40 24 -70.5t62.5 -56t81 -49.5t81 -52t62.5 -63t24 -82q0 -52 -26 -94.5t-78 -67t-131 -24.5zM221 -292l-12 19q29 23 48 55t19 64q-21 0 -41.5 14t-20.5 41q14 21 45 37.5t60 19.5q8 -22 11 -42t3 -38q0 -62 -33 -103t-79 -67z" />
    <glyph glyph-name="uni0219" unicode="&#x219;" horiz-adv-x="372" 
d="M168 -12q-44 0 -82.5 13t-57.5 23v38q12 -6 33.5 -14t47 -14t48.5 -6q53 0 76 24t23 49q0 30 -22 51t-54.5 38.5t-65.5 37.5t-55 47.5t-22 68.5q0 27 13.5 54.5t44 46.5t82.5 19q53 0 87.5 -9.5t51.5 -16.5l-10 -66q-40 22 -76 34t-61 16q-27 0 -43 -20t-16 -42
q0 -29 23 -49.5t57 -38.5t67.5 -38t56.5 -47t23 -68q0 -54 -43.5 -92.5t-125.5 -38.5zM129 -292l-12 19q29 23 48 55t19 64q-21 0 -41.5 14t-20.5 41q14 21 45 37.5t60 19.5q8 -22 11 -42t3 -38q0 -62 -33 -103t-79 -67z" />
    <glyph glyph-name="uni021A" unicode="&#x21a;" horiz-adv-x="535" 
d="M219 0v614q-16 4 -32 6t-36 2l-135 -31l-6 71h515l-5 -71l-136 31q-20 0 -36 -2t-32 -6v-614h-97zM211 -292l-12 19q29 23 48 55t19 64q-21 0 -41.5 14t-20.5 41q14 21 45 37.5t60 19.5q8 -22 11 -42t3 -38q0 -62 -33 -103t-79 -67z" />
    <glyph glyph-name="uni021B" unicode="&#x21b;" horiz-adv-x="329" 
d="M188 -12q-41 0 -69 24t-28 81v323l-81 16v20h81v36l84 61v-97h119v-36h-119v-328q0 -28 11.5 -44t43.5 -16q14 0 31 4.5t33 10.5v-28q-22 -10 -49.5 -18.5t-56.5 -8.5zM108 -292l-12 19q29 23 48 55t19 64q-21 0 -41.5 14t-20.5 41q14 21 45 37.5t60 19.5q8 -22 11 -42
t3 -38q0 -62 -33 -103t-79 -67z" />
    <glyph glyph-name="uni0237" unicode="&#x237;" horiz-adv-x="235" 
d="M-34 -223q-18 0 -38 4t-38 8l10 65q16 -8 37 -15t41 -11t31 -4q19 10 32 33.5t20.5 53t10.5 58t3 48.5v435h85l-1 -435q0 -68 -23.5 -122.5t-67 -86t-102.5 -31.5z" />
    <glyph glyph-name="circumflex" unicode="&#x2c6;" horiz-adv-x="333" 
d="M17 507l125 167h48l126 -167h-40l-110 93l-109 -93h-40z" />
    <glyph glyph-name="caron" unicode="&#x2c7;" horiz-adv-x="333" 
d="M142 506l-126 167h40l110 -93l109 93h40l-125 -167h-48z" />
    <glyph glyph-name="breve" unicode="&#x2d8;" horiz-adv-x="333" 
d="M164 507q-35 0 -67 16t-51.5 50t-19.5 86v5h29q8 -46 35.5 -71.5t75.5 -25.5q38 0 59 14t32.5 36t20.5 47h29q-1 -12 -6 -37t-19 -53t-42 -47.5t-76 -19.5z" />
    <glyph glyph-name="dotaccent" unicode="&#x2d9;" horiz-adv-x="238" 
d="M116 541q-22 0 -36.5 16t-14.5 36q0 22 14.5 37t36.5 15q21 0 36.5 -15t15.5 -37q0 -20 -15.5 -36t-36.5 -16z" />
    <glyph glyph-name="ring" unicode="&#x2da;" horiz-adv-x="333" 
d="M166 512q-43 0 -71 29.5t-28 69.5q0 41 28.5 70.5t70.5 29.5q41 0 70.5 -29.5t29.5 -70.5t-29.5 -70t-70.5 -29zM165 546q29 0 48 19t19 46t-19 46.5t-47 19.5q-22 0 -36.5 -11t-21.5 -26.5t-7 -27.5t6.5 -27.5t21 -27t36.5 -11.5z" />
    <glyph glyph-name="ogonek" unicode="&#x2db;" horiz-adv-x="333" 
d="M141 -165q-33 0 -56 20t-23 48q0 32 16.5 57t39.5 40h44q-18 -14 -32 -31.5t-14 -43.5q0 -21 13 -31t32 -10t38.5 12.5t27.5 30.5l16 -7q-10 -35 -39.5 -60t-62.5 -25z" />
    <glyph glyph-name="tilde" unicode="&#x2dc;" horiz-adv-x="333" 
d="M35 530l-27 15q11 26 35.5 51t66.5 38q20 0 46.5 -10t50.5 -20.5t34 -10.5q20 0 32 12t25 31l27 -15q-10 -25 -35 -50t-67 -39q-19 0 -46 10.5t-51 20.5t-34 10q-19 0 -31 -12t-26 -31z" />
    <glyph glyph-name="hungarumlaut" unicode="&#x2dd;" horiz-adv-x="333" 
d="M190 507l172 188l56 -50l-188 -138h-40zM35 507l172 188l56 -50l-188 -138h-40z" />
    <glyph glyph-name="gravecomb" unicode="&#x300;" horiz-adv-x="0" 
d="M202 507l-188 138l56 50l172 -188h-40z" />
    <glyph glyph-name="acutecomb" unicode="&#x301;" horiz-adv-x="0" 
d="M93 507l172 188l56 -50l-188 -138h-40z" />
    <glyph glyph-name="uni0302" unicode="&#x302;" horiz-adv-x="0" 
d="M17 507l125 167h48l126 -167h-40l-110 93l-109 -93h-40z" />
    <glyph glyph-name="tildecomb" unicode="&#x303;" horiz-adv-x="0" 
d="M35 530l-27 15q11 26 35.5 51t66.5 38q20 0 46.5 -10t50.5 -20.5t34 -10.5q20 0 32 12t25 31l27 -15q-10 -25 -35 -50t-67 -39q-19 0 -46 10.5t-51 20.5t-34 10q-19 0 -31 -12t-26 -31z" />
    <glyph glyph-name="uni0304" unicode="&#x304;" horiz-adv-x="0" 
d="M11 547v54h311v-54h-311z" />
    <glyph glyph-name="uni0306" unicode="&#x306;" horiz-adv-x="0" 
d="M164 507q-35 0 -67 16t-51.5 50t-19.5 86v5h29q8 -46 35.5 -71.5t75.5 -25.5q38 0 59 14t32.5 36t20.5 47h29q-1 -12 -6 -37t-19 -53t-42 -47.5t-76 -19.5z" />
    <glyph glyph-name="uni0307" unicode="&#x307;" horiz-adv-x="0" 
d="M116 541q-22 0 -36.5 16t-14.5 36q0 22 14.5 37t36.5 15q21 0 36.5 -15t15.5 -37q0 -20 -15.5 -36t-36.5 -16z" />
    <glyph glyph-name="uni0308" unicode="&#x308;" horiz-adv-x="0" 
d="M265 541q-21 0 -35.5 14.5t-14.5 35.5t14.5 35.5t35.5 14.5t35.5 -14.5t14.5 -35.5t-14.5 -35.5t-35.5 -14.5zM68 541q-21 0 -35.5 14.5t-14.5 35.5t14.5 35.5t35.5 14.5t35.5 -14.5t14.5 -35.5t-14.5 -35.5t-35.5 -14.5z" />
    <glyph glyph-name="uni030A" unicode="&#x30a;" horiz-adv-x="0" 
d="M166 512q-43 0 -71 29.5t-28 69.5q0 41 28.5 70.5t70.5 29.5q41 0 70.5 -29.5t29.5 -70.5t-29.5 -70t-70.5 -29zM165 546q29 0 48 19t19 46t-19 46.5t-47 19.5q-22 0 -36.5 -11t-21.5 -26.5t-7 -27.5t6.5 -27.5t21 -27t36.5 -11.5z" />
    <glyph glyph-name="uni030B" unicode="&#x30b;" horiz-adv-x="0" 
d="M190 507l172 188l56 -50l-188 -138h-40zM35 507l172 188l56 -50l-188 -138h-40z" />
    <glyph glyph-name="uni030C" unicode="&#x30c;" horiz-adv-x="0" 
d="M142 506l-126 167h40l110 -93l109 93h40l-125 -167h-48z" />
    <glyph glyph-name="uni0326" unicode="&#x326;" horiz-adv-x="0" 
d="M52 -312l-12 19q29 23 48 55t19 64q-21 0 -41.5 14t-20.5 41q14 21 45 37.5t60 19.5q8 -22 11 -42t3 -38q0 -62 -33 -103t-79 -67z" />
    <glyph glyph-name="uni0327" unicode="&#x327;" horiz-adv-x="0" 
d="M140 -215q-19 0 -45 4.5t-43 11.5l14 31q13 -5 34.5 -8.5t27.5 -3.5q24 0 41 11.5t17 27.5q-12 23 -35 32t-52 9l40 100h35l-25 -65q31 0 63 -17t49 -50q0 -34 -35.5 -58.5t-85.5 -24.5z" />
    <glyph glyph-name="uni0328" unicode="&#x328;" horiz-adv-x="0" 
d="M141 -165q-33 0 -56 20t-23 48q0 32 16.5 57t39.5 40h44q-18 -14 -32 -31.5t-14 -43.5q0 -21 13 -31t32 -10t38.5 12.5t27.5 30.5l16 -7q-10 -35 -39.5 -60t-62.5 -25z" />
    <glyph glyph-name="uni0394" unicode="&#x394;" horiz-adv-x="629" 
d="M40 0l267 678h15l267 -678h-549zM115 54h344l-172 448z" />
    <glyph glyph-name="uni03A9" unicode="&#x3a9;" horiz-adv-x="725" 
d="M75 0v64l135 -13v52q-65 29 -105.5 92t-40.5 160q0 91 30.5 152.5t79.5 98t106 52.5t109 16q76 0 137.5 -32.5t98 -96t36.5 -156.5q0 -71 -19.5 -122t-52.5 -86t-73 -58v-72l135 13v-64h-192v131q34 26 55 65.5t31 85t10 86.5q0 71 -19 131.5t-61.5 97t-111.5 36.5
q-52 0 -88.5 -25t-59.5 -64.5t-34 -86t-11 -89.5q0 -77 22.5 -143t74.5 -99v-126h-192z" />
    <glyph glyph-name="uni03BC" unicode="&#x3bc;" horiz-adv-x="510" 
d="M79 -210v662h85v-320q0 -46 16.5 -71.5t60.5 -25.5q23 0 45.5 21.5t33.5 42.5v353h85v-318q0 -34 9.5 -55.5t22 -34t20.5 -19.5l-52 -37l-81 73q-28 -35 -55.5 -54.5t-71.5 -19.5q-24 0 -45.5 12t-40.5 45h-4q3 -40 10.5 -79t16 -70.5t15 -50l6.5 -18.5
q-10 -15 -30 -25.5t-46 -10.5z" />
    <glyph glyph-name="pi" unicode="&#x3c0;" horiz-adv-x="515" 
d="M425 -9q-13 8 -33.5 23.5t-36 48t-15.5 89.5v246h-166v-398h-85v398h-50v54h436v-54h-50v-260q0 -34 9.5 -56t21.5 -34t20 -19z" />
    <glyph glyph-name="Wgrave" unicode="&#x1e80;" horiz-adv-x="856" 
d="M263 -15l-253 677h109l176 -542l112 334l-78 208h109l176 -542l182 542h50l-248 -677h-16l-153 410l-150 -410h-16zM502 717l-188 138l56 50l172 -188h-40z" />
    <glyph glyph-name="wgrave" unicode="&#x1e81;" horiz-adv-x="684" 
d="M205 -13l-195 465h92l133 -353l90 246l-45 107h92l133 -353l130 353h39l-183 -465h-16l-132 312l-123 -312h-15zM416 507l-188 138l56 50l172 -188h-40z" />
    <glyph glyph-name="Wacute" unicode="&#x1e82;" horiz-adv-x="856" 
d="M263 -15l-253 677h109l176 -542l112 334l-78 208h109l176 -542l182 542h50l-248 -677h-16l-153 410l-150 -410h-16zM331 717l172 188l56 -50l-188 -138h-40z" />
    <glyph glyph-name="wacute" unicode="&#x1e83;" horiz-adv-x="684" 
d="M205 -13l-195 465h92l133 -353l90 246l-45 107h92l133 -353l130 353h39l-183 -465h-16l-132 312l-123 -312h-15zM228 507l172 188l56 -50l-188 -138h-40z" />
    <glyph glyph-name="Wdieresis" unicode="&#x1e84;" horiz-adv-x="856" 
d="M263 -15l-253 677h109l176 -542l112 334l-78 208h109l176 -542l182 542h50l-248 -677h-16l-153 410l-150 -410h-16zM526 751q-21 0 -35.5 14.5t-14.5 35.5t14.5 35.5t35.5 14.5t35.5 -14.5t14.5 -35.5t-14.5 -35.5t-35.5 -14.5zM329 751q-21 0 -35.5 14.5t-14.5 35.5
t14.5 35.5t35.5 14.5t35.5 -14.5t14.5 -35.5t-14.5 -35.5t-35.5 -14.5z" />
    <glyph glyph-name="wdieresis" unicode="&#x1e85;" horiz-adv-x="684" 
d="M205 -13l-195 465h92l133 -353l90 246l-45 107h92l133 -353l130 353h39l-183 -465h-16l-132 312l-123 -312h-15zM440 541q-21 0 -35.5 14.5t-14.5 35.5t14.5 35.5t35.5 14.5t35.5 -14.5t14.5 -35.5t-14.5 -35.5t-35.5 -14.5zM243 541q-21 0 -35.5 14.5t-14.5 35.5
t14.5 35.5t35.5 14.5t35.5 -14.5t14.5 -35.5t-14.5 -35.5t-35.5 -14.5z" />
    <glyph glyph-name="Ygrave" unicode="&#x1ef2;" horiz-adv-x="557" 
d="M246 0v246l-226 416h109l185 -380l173 380h50l-194 -411v-251h-97zM353 717l-188 138l56 50l172 -188h-40z" />
    <glyph glyph-name="ygrave" unicode="&#x1ef3;" horiz-adv-x="441" 
d="M5 -220l14 73q56 2 95.5 25t66.5 57.5t44 69.5l-203 447h89l153 -339l118 339h38l-171 -467q-22 -60 -59 -106t-84.5 -72t-100.5 -27zM305 507l-188 138l56 50l172 -188h-40z" />
    <glyph glyph-name="endash" unicode="&#x2013;" 
d="M0 201v49h500v-49h-500z" />
    <glyph glyph-name="emdash" unicode="&#x2014;" horiz-adv-x="1000" 
d="M0 201v49h1000v-49h-1000z" />
    <glyph glyph-name="quoteleft" unicode="&#x2018;" horiz-adv-x="224" 
d="M64 433q-7 22 -10.5 42t-3.5 38q0 62 33 103.5t79 66.5l12 -19q-29 -23 -48 -55t-19 -64q21 0 41.5 -14t20.5 -41q-14 -21 -45 -37.5t-60 -19.5z" />
    <glyph glyph-name="quoteright" unicode="&#x2019;" horiz-adv-x="224" 
d="M62 427l-12 19q29 23 48 55t19 64q-21 0 -41.5 14t-20.5 41q14 21 45 37.5t60 19.5q8 -22 11 -42t3 -38q0 -62 -33 -103t-79 -67z" />
    <glyph glyph-name="quotesinglbase" unicode="&#x201a;" horiz-adv-x="224" 
d="M63 -142l-12 19q29 23 48 55t19 64q-21 0 -41.5 14t-20.5 41q14 21 45 37.5t60 19.5q8 -22 11 -42t3 -38q0 -62 -33 -103t-79 -67z" />
    <glyph glyph-name="quotedblleft" unicode="&#x201c;" horiz-adv-x="394" 
d="M224 433q-7 22 -10.5 42t-3.5 38q0 62 33 103.5t79 66.5l12 -19q-29 -23 -48 -55t-19 -64q21 0 41.5 -14t20.5 -41q-14 -21 -45 -37.5t-60 -19.5zM64 433q-7 22 -10.5 42t-3.5 38q0 62 33 103.5t79 66.5l12 -19q-29 -23 -48 -55t-19 -64q21 0 41.5 -14t20.5 -41
q-14 -21 -45 -37.5t-60 -19.5z" />
    <glyph glyph-name="quotedblright" unicode="&#x201d;" horiz-adv-x="394" 
d="M222 427l-12 19q29 23 48 55t19 64q-21 0 -41.5 14t-20.5 41q14 21 45 37.5t60 19.5q8 -22 11 -42t3 -38q0 -62 -33 -103t-79 -67zM62 427l-12 19q29 23 48 55t19 64q-21 0 -41.5 14t-20.5 41q14 21 45 37.5t60 19.5q8 -22 11 -42t3 -38q0 -62 -33 -103t-79 -67z" />
    <glyph glyph-name="quotedblbase" unicode="&#x201e;" horiz-adv-x="394" 
d="M223 -142l-12 19q29 23 48 55t19 64q-21 0 -41.5 14t-20.5 41q14 21 45 37.5t60 19.5q8 -22 11 -42t3 -38q0 -62 -33 -103t-79 -67zM63 -142l-12 19q29 23 48 55t19 64q-21 0 -41.5 14t-20.5 41q14 21 45 37.5t60 19.5q8 -22 11 -42t3 -38q0 -62 -33 -103t-79 -67z" />
    <glyph glyph-name="dagger" unicode="&#x2020;" 
d="M241 -149l-32 466l30 118l-122 -20h-58v66h58l119 -20l-28 136v80q14 3 24.5 4t20.5 1t20 -1t21 -4v-80l-29 -136l119 20h58v-66h-58l-123 20l31 -118l-30 -466h-21z" />
    <glyph glyph-name="daggerdbl" unicode="&#x2021;" 
d="M247 -156q-10 0 -20 1t-21 4v80l29 136l-119 -20h-58v66h58l123 -20l-31 171l31 173l-122 -20h-58v66h58l119 -20l-28 136v80q14 3 24.5 4t20.5 1t20 -1t21 -4v-80l-29 -136l119 20h58v-66h-58l-123 20l31 -173l-31 -171l122 20h58v-66h-58l-119 20l28 -136v-80
q-13 -3 -24 -4t-21 -1z" />
    <glyph glyph-name="bullet" unicode="&#x2022;" horiz-adv-x="350" 
d="M175 196q-37 0 -68 18t-49 49.5t-18 69.5q0 37 18 67t49 48t68 18q38 0 68.5 -18t48.5 -48.5t18 -68.5q0 -37 -18 -67.5t-48.5 -49t-68.5 -18.5z" />
    <glyph glyph-name="ellipsis" unicode="&#x2026;" horiz-adv-x="651" 
d="M325 -11q-23 0 -39 16t-16 39t16 39.5t39 16.5t39.5 -16.5t16.5 -39.5t-16.5 -39t-39.5 -16zM525 -11q-23 0 -39 16t-16 39t16 39.5t39 16.5t39.5 -16.5t16.5 -39.5t-16.5 -39t-39.5 -16zM125 -11q-23 0 -39 16t-16 39t16 39.5t39 16.5t39.5 -16.5t16.5 -39.5t-16.5 -39
t-39.5 -16z" />
    <glyph glyph-name="perthousand" unicode="&#x2030;" horiz-adv-x="1149" 
d="M177 291q-58 0 -97.5 48t-39.5 137q0 78 26 123.5t63.5 65t71.5 19.5q57 0 97 -49t40 -138q0 -58 -15.5 -97.5t-39.5 -63.5t-52 -34.5t-54 -10.5zM200 -14l353 691h46l-350 -691h-49zM187 334q78 0 78 151q0 42 -10.5 76.5t-28.5 55.5t-39 21q-37 0 -57 -41.5t-20 -111.5
q0 -41 10.5 -75.5t28 -55t38.5 -20.5zM598 -10q-58 0 -97.5 48t-39.5 137q0 78 26 123.5t63.5 65t71.5 19.5q57 0 97 -49t40 -138q0 -58 -15.5 -97.5t-39.5 -63.5t-52 -34.5t-54 -10.5zM948 -10q-58 0 -97.5 48t-39.5 137q0 78 26 123.5t63.5 65t71.5 19.5q57 0 97 -49
t40 -138q0 -58 -15.5 -97.5t-39.5 -63.5t-52 -34.5t-54 -10.5zM608 33q78 0 78 151q0 42 -10.5 76.5t-28.5 55.5t-39 21q-37 0 -57 -41.5t-20 -111.5q0 -41 10.5 -75.5t28 -55t38.5 -20.5zM958 33q78 0 78 151q0 42 -10.5 76.5t-28.5 55.5t-39 21q-37 0 -57 -41.5
t-20 -111.5q0 -41 10.5 -75.5t28 -55t38.5 -20.5z" />
    <glyph glyph-name="guilsinglleft" unicode="&#x2039;" horiz-adv-x="333" 
d="M274 33l-211 194l211 189q10 0 10 -11l-128 -180l129 -181q0 -11 -11 -11z" />
    <glyph glyph-name="guilsinglright" unicode="&#x203a;" horiz-adv-x="333" 
d="M59 32q-10 0 -10 11l128 180l-129 181q0 11 11 11l211 -194z" />
    <glyph glyph-name="fraction" unicode="&#x2044;" horiz-adv-x="799" 
d="M200 -14l353 691h46l-350 -691h-49z" />
    <glyph glyph-name="uni2074" unicode="&#x2074;" horiz-adv-x="327" 
d="M195 268v79h-183v27l186 288h56v-269h53v-46h-53v-79h-59zM68 393h127v201z" />
    <glyph glyph-name="franc" unicode="&#x20a3;" horiz-adv-x="481" 
d="M90 0v145h-78v49h78v468h391v-67l-185 31q-30 0 -55 -4.5t-54 -12.5v-243h212v-38h-212v-134h176v-49h-176v-145h-97z" />
    <glyph glyph-name="lira" unicode="&#x20a4;" 
d="M56 0v27q30 48 42 101t13 106h-85v38h84q-1 22 -3.5 44t-5.5 44h-75v38h70q-1 18 -2.5 35.5t-1.5 35.5q0 63 24.5 110.5t67 74t95.5 26.5q40 0 74.5 -10.5t58.5 -20.5l-10 -66q-42 23 -84 40t-74 21q-39 -14 -52 -44.5t-13 -73.5q0 -28 3.5 -60.5t4.5 -67.5h142v-38h-141
q-1 -43 -7 -88h148v-38h-154q-9 -51 -25.5 -99.5t-40.5 -87.5q23 -5 46.5 -7.5t46.5 -3.5l226 31l-12 -67h-360z" />
    <glyph glyph-name="Euro" unicode="&#x20ac;" 
d="M340 -13q-54 0 -108.5 25t-96.5 79.5t-58 142.5h-59v39h54q-1 13 -1.5 26t-0.5 27q0 8 0.5 17t0.5 17h-53v38h57q11 77 42 130t72.5 86t85 48t77.5 15q29 0 63.5 -8.5t54.5 -21.5l-10 -66q-61 32 -96.5 43.5t-52.5 11.5q-52 -18 -94.5 -79t-51.5 -159h216v-38h-218v-8
q0 -43 3 -79h215v-39h-210q19 -115 69 -164t113 -49q35 0 71 13.5t58 40.5v-55q-33 -17 -73 -25t-69 -8z" />
    <glyph glyph-name="uni2113" unicode="&#x2113;" horiz-adv-x="309" 
d="M188 -12q-97 0 -97 105v569l84 12v-586q0 -47 36 -47q27 0 61 28l12 -26q-19 -25 -44.5 -40t-51.5 -15z" />
    <glyph glyph-name="trademark" unicode="&#x2122;" horiz-adv-x="836" 
d="M362 258l23 404h56l141 -308l135 308h62l23 -404h-62l-17 347h-2l-154 -347h-8l-151 333h-3l-16 -333h-27zM143 258v374q-9 3 -19 4t-22 1l-82 -19l-4 44h314l-3 -44l-83 19q-12 0 -22 -1t-19 -4v-374h-60z" />
    <glyph glyph-name="uni2126" unicode="&#x2126;" horiz-adv-x="725" 
d="M75 0v64l135 -13v52q-65 29 -105.5 92t-40.5 160q0 91 30.5 152.5t79.5 98t106 52.5t109 16q76 0 137.5 -32.5t98 -96t36.5 -156.5q0 -71 -19.5 -122t-52.5 -86t-73 -58v-72l135 13v-64h-192v131q34 26 55 65.5t31 85t10 86.5q0 71 -19 131.5t-61.5 97t-111.5 36.5
q-52 0 -88.5 -25t-59.5 -64.5t-34 -86t-11 -89.5q0 -77 22.5 -143t74.5 -99v-126h-192z" />
    <glyph glyph-name="estimated" unicode="&#x212e;" horiz-adv-x="600" 
d="M302 -17q-82 0 -139.5 37.5t-88 100t-30.5 138.5q0 82 31 144t89 97t138 35q86 0 142 -37t85 -99.5t32 -139.5h-404v-181q62 -59 145 -59q124 0 193 120l35 -21q-34 -46 -66 -76t-70 -44.5t-92 -14.5zM157 295h291v145q-63 60 -147 60q-85 0 -144 -60v-145z" />
    <glyph glyph-name="partialdiff" unicode="&#x2202;" 
d="M191 -12q-75 0 -124.5 46t-49.5 134q0 84 28.5 141t72.5 91t92 49t87 15q17 0 32.5 -2.5t30.5 -7.5q-19 62 -51 107t-73 61q-40 0 -75.5 -9t-78.5 -23l-20 64q14 5 37 10t48.5 9t46.5 4q55 0 99.5 -25t77.5 -67.5t55.5 -94t33.5 -105.5t11 -101q0 -84 -28.5 -141
t-72.5 -91t-92 -49t-87 -15zM215 22q37 0 64 19t46.5 49.5t31 65.5t17 68.5t5.5 58.5q0 61 -27 102t-94 41q-52 -19 -85 -60.5t-48.5 -93.5t-15.5 -105q0 -61 24 -103t82 -42z" />
    <glyph glyph-name="uni2206" unicode="&#x2206;" horiz-adv-x="629" 
d="M40 0l267 678h15l267 -678h-549zM115 54h344l-172 448z" />
    <glyph glyph-name="product" unicode="&#x220f;" horiz-adv-x="627" 
d="M90 -100v762h447v-762h-97v708h-253v-708h-97z" />
    <glyph glyph-name="summation" unicode="&#x2211;" horiz-adv-x="600" 
d="M81 -100l233 367l-223 395h419v-54h-283l175 -308l-221 -346h339v-54h-439z" />
    <glyph glyph-name="minus" unicode="&#x2212;" horiz-adv-x="564" 
d="M59 224v58h446v-58h-446z" />
    <glyph glyph-name="radical" unicode="&#x221a;" horiz-adv-x="550" 
d="M228 -100l-178 452h109l104 -276l194 607h179v-54h-143l-233 -729h-32z" />
    <glyph glyph-name="infinity" unicode="&#x221e;" horiz-adv-x="869" 
d="M221 55q-57 0 -95 29t-57 74.5t-19 94.5q0 50 19 95t57 74t95 29q17 0 42 -4t54 -19.5t57 -51.5l60 -75l61 75q28 36 57 51.5t54 19.5t42 4q57 0 95 -29t57 -74t19 -95q0 -49 -19 -94.5t-57 -74.5t-95 -29q-17 0 -42.5 3.5t-54.5 19.5t-57 51l-60 75l-59 -75
q-28 -35 -57 -51t-54.5 -19.5t-42.5 -3.5zM221 113q18 0 49 8t59 44l71 88l-72 86q-31 38 -60.5 46t-46.5 8q-37 0 -62.5 -20.5t-38 -52.5t-12.5 -67t12.5 -67t38 -52.5t62.5 -20.5zM648 113q38 0 63 20.5t37.5 52.5t12.5 67t-12.5 67t-37.5 52.5t-63 20.5q-17 0 -46 -8
t-61 -46l-72 -86l71 -88q29 -36 59.5 -44t48.5 -8z" />
    <glyph glyph-name="integral" unicode="&#x222b;" horiz-adv-x="339" 
d="M46 -113q-19 0 -39 4.5t-37 10.5l8 39q34 -8 66 -8q35 0 52.5 18t24 43.5t6.5 48.5v429q0 73 22.5 118t60 66t83.5 21q19 0 39 -4.5t37 -10.5l-8 -39q-34 8 -66 8q-34 0 -52 -18t-24.5 -43.5t-6.5 -48.5v-429q0 -73 -22.5 -118t-60 -66t-83.5 -21z" />
    <glyph glyph-name="approxequal" unicode="&#x2248;" horiz-adv-x="564" 
d="M162 284q-27 0 -53.5 6.5t-49.5 21.5v59q23 -14 48.5 -20.5t52.5 -6.5q38 0 76.5 13t78 25.5t80.5 12.5q58 0 110 -24v-59q-49 24 -107 24q-37 0 -75.5 -13t-78 -26t-82.5 -13zM162 107q-27 0 -53.5 6.5t-49.5 21.5v59q44 -28 101 -28q39 0 76.5 14t76.5 27.5t80 13.5
q61 0 112 -27v-59q-48 27 -107 27q-38 0 -75.5 -13.5t-77 -27.5t-83.5 -14z" />
    <glyph glyph-name="notequal" unicode="&#x2260;" horiz-adv-x="564" 
d="M83 -23l101 158h-125v59h163l75 118h-238v59h276l101 159h46l-100 -159h123v-59h-161l-74 -118h235v-59h-273l-100 -158h-49z" />
    <glyph glyph-name="lessequal" unicode="&#x2264;" horiz-adv-x="564" 
d="M507 98l-450 204v54l450 204v-60l-377 -171l377 -171v-60zM59 0v58h446v-58h-446z" />
    <glyph glyph-name="greaterequal" unicode="&#x2265;" horiz-adv-x="564" 
d="M57 98v60l377 171l-377 171v60l450 -204v-54zM59 0v58h446v-58h-446z" />
    <glyph glyph-name="lozenge" unicode="&#x25ca;" horiz-adv-x="589" 
d="M287 -200l-237 439l237 439h15l237 -439l-237 -439h-15zM294 -115l188 354l-188 354l-187 -354z" />
    <glyph glyph-name="uniF8FF" unicode="&#xf8ff;" horiz-adv-x="923" 
d="M416 -114q-10 0 -18 6.5t-16.5 12.5t-20.5 6q-6 0 -12.5 -1t-11.5 -1q-19 0 -30 15.5t-21 20.5q-17 9 -25.5 7.5t-20.5 5.5q-13 8 -16.5 23t-13.5 23t-20.5 10t-18.5 14q-8 14 -7.5 24t-7.5 23q-6 9 -20 19.5t-14 29.5q0 7 1.5 13t1.5 12q0 14 -12.5 26.5t-12.5 28.5
q0 11 6 22t6 22q0 13 -6 22t-6 20q0 16 12.5 31.5t12.5 29.5q0 6 -0.5 12.5t-0.5 12.5q0 19 14 27t21 21q5 8 5.5 21.5t5.5 21.5q6 10 19 13t21 11t12.5 21t12.5 20q10 8 24.5 9.5t26.5 7.5q13 7 21.5 22t27.5 16q6 0 12.5 -1t13.5 -1q13 0 21 6t15.5 11.5t18.5 5.5
q10 0 22 -6t22 -6q11 0 23 6t22 6q13 0 21 -6t16 -12.5t20 -6.5q6 0 13.5 1.5t14.5 1.5q14 0 20.5 -7t12.5 -15.5t15 -13.5q11 -6 23 -6.5t22 -8.5q10 -7 12 -18.5t11 -20.5q11 -10 27 -16t24 -20q5 -7 4 -20.5t3 -21.5q6 -9 14.5 -14.5t15 -13t6.5 -21.5q0 -7 -0.5 -13
t-0.5 -12q0 -19 12 -31.5t12 -29.5q0 -10 -5.5 -19.5t-5.5 -19.5q0 -11 5.5 -22t5.5 -22q-1 -10 -7.5 -16t-12 -12.5t-5.5 -19.5q0 -8 1 -16t1 -16q0 -14 -6.5 -21t-14.5 -11.5t-13 -13.5q-6 -10 -8 -25.5t-10 -25.5q-7 -8 -17 -11t-18 -11q-9 -9 -14.5 -22.5t-15.5 -20.5
t-24 -9.5t-25 -8.5q-13 -7 -19 -18t-26 -11q-6 0 -11.5 0.5t-11.5 0.5h-5t-5 -1q-13 -4 -24 -13.5t-24 -9.5q-11 0 -23 5t-23 5q-12 0 -23.5 -6t-22.5 -6zM426 -15q9 0 18 4.5t18 4.5q8 0 16.5 -3.5t16.5 -3.5q9 0 17 7t18 9q3 1 9 1q4 0 7.5 -0.5t7.5 -0.5q15 0 19.5 8.5
t13.5 12.5q8 5 18 7t17 7q8 5 12 14.5t10 15.5q5 6 13 8t13 8q5 8 7 19t6 19q6 11 15 14t9 21q0 5 -0.5 10.5t-0.5 9.5q0 14 8 20t10 16q0 8 -4 16t-4 16q0 7 4 14t4 14q0 12 -9 22t-9 23q0 4 0.5 8.5t0.5 8.5q0 16 -10 21t-16 15q-3 6 -2.5 15.5t-2.5 15.5
q-6 10 -17.5 14.5t-19.5 11.5q-7 6 -8 14.5t-9 13.5q-7 6 -15.5 6t-17.5 5q-10 5 -14.5 15.5t-19.5 10.5q-5 0 -10 -1t-10 -1q-14 0 -20.5 9t-20.5 9q-8 0 -16.5 -4.5t-16.5 -4.5q-7 0 -15.5 4.5t-16.5 4.5q-12 0 -20 -8.5t-22 -8.5q-4 0 -8 0.5t-9 0.5q-14 0 -20 -11
t-16 -16q-8 -4 -18.5 -5t-17.5 -7q-7 -5 -10 -14.5t-9 -15.5t-15 -8t-14 -9q-4 -6 -4 -15.5t-4 -15.5q-5 -10 -15.5 -16t-10.5 -20q0 -4 0.5 -8t0.5 -8q0 -12 -8.5 -23t-8.5 -23q0 -8 4 -14.5t4 -15.5q0 -8 -4 -16.5t-4 -16.5q0 -11 8.5 -20.5t8.5 -20.5q0 -4 -1 -8t-1 -8
q0 -14 10.5 -21t14.5 -14q6 -10 5.5 -17.5t5.5 -17.5q5 -8 13 -9.5t15 -7.5q8 -6 10 -17t12 -17q8 -6 14 -4t19 -5q8 -4 15.5 -15t21.5 -11q4 0 7.5 0.5t7.5 0.5q14 0 22 -8t18 -10zM462 77q-47 0 -85.5 23t-61.5 61.5t-23 85.5t23 85.5t61.5 61.5t85.5 23t85.5 -23
t61.5 -61.5t23 -85.5t-23 -85.5t-61.5 -61.5t-85.5 -23zM420 117h85v175h52v68h-191v-68h54v-175z" />
    <glyph glyph-name="i.loclTRK" horiz-adv-x="233" 
d="M75 0v452h83v-452h-83zM116 541q-22 0 -36.5 16t-14.5 36q0 22 14.5 37t36.5 15q21 0 36.5 -15t15.5 -37q0 -20 -15.5 -36t-36.5 -16z" />
    <glyph glyph-name="periodcentered.loclCAT" horiz-adv-x="250" 
d="M114 279q-16 0 -35.5 13t-19.5 41q0 24 16.5 40.5t38.5 16.5q23 0 39.5 -17t16.5 -40q0 -28 -20 -41t-36 -13z" />
    <glyph glyph-name="periodcentered.loclCAT.case" horiz-adv-x="250" 
d="M135 279q-16 0 -35.5 13t-19.5 41q0 24 16.5 40.5t38.5 16.5q23 0 39.5 -17t16.5 -40q0 -28 -20 -41t-36 -13z" />
    <glyph glyph-name="uni030C.alt" horiz-adv-x="0" 
d="M63 468l-12 19q29 23 48 55t19 64q-21 0 -41.5 14t-20.5 41q14 21 45 37.5t60 19.5q8 -22 11 -42t3 -38q0 -62 -33 -103t-79 -67z" />
    <glyph glyph-name="uni0308.case" horiz-adv-x="0" 
d="M265 751q-21 0 -35.5 14.5t-14.5 35.5t14.5 35.5t35.5 14.5t35.5 -14.5t14.5 -35.5t-14.5 -35.5t-35.5 -14.5zM68 751q-21 0 -35.5 14.5t-14.5 35.5t14.5 35.5t35.5 14.5t35.5 -14.5t14.5 -35.5t-14.5 -35.5t-35.5 -14.5z" />
    <glyph glyph-name="uni0307.case" horiz-adv-x="0" 
d="M116 751q-22 0 -36.5 16t-14.5 36q0 22 14.5 37t36.5 15q21 0 36.5 -15t15.5 -37q0 -20 -15.5 -36t-36.5 -16z" />
    <glyph glyph-name="gravecomb.case" horiz-adv-x="0" 
d="M240 717l-188 138l56 50l172 -188h-40z" />
    <glyph glyph-name="acutecomb.case" horiz-adv-x="0" 
d="M73 717l172 188l56 -50l-188 -138h-40z" />
    <glyph glyph-name="uni030B.case" horiz-adv-x="0" 
d="M138 717l172 188l56 -50l-188 -138h-40zM-17 717l172 188l56 -50l-188 -138h-40z" />
    <glyph glyph-name="uni0302.case" horiz-adv-x="0" 
d="M17 718l125 167h48l126 -167h-40l-110 93l-109 -93h-40z" />
    <glyph glyph-name="uni030C.case" horiz-adv-x="0" 
d="M142 724l-126 167h40l110 -93l109 93h40l-125 -167h-48z" />
    <glyph glyph-name="uni0306.case" horiz-adv-x="0" 
d="M164 718q-35 0 -67 16t-51.5 50t-19.5 86v5h29q8 -46 35.5 -71.5t75.5 -25.5q38 0 59 14t32.5 36t20.5 47h29q-1 -12 -6 -37t-19 -53t-42 -47.5t-76 -19.5z" />
    <glyph glyph-name="uni030A.case" horiz-adv-x="0" 
d="M166 722q-43 0 -71 29.5t-28 69.5q0 41 28.5 70.5t70.5 29.5q41 0 70.5 -29.5t29.5 -70.5t-29.5 -70t-70.5 -29zM165 756q29 0 48 19t19 46t-19 46.5t-47 19.5q-22 0 -36.5 -11t-21.5 -26.5t-7 -27.5t6.5 -27.5t21 -27t36.5 -11.5z" />
    <glyph glyph-name="tildecomb.case" horiz-adv-x="0" 
d="M35 740l-27 15q11 26 35.5 51t66.5 38q20 0 46.5 -10t50.5 -20.5t34 -10.5q20 0 32 12t25 31l27 -15q-10 -25 -35 -50t-67 -39q-19 0 -46 10.5t-51 20.5t-34 10q-19 0 -31 -12t-26 -31z" />
    <glyph glyph-name="uni0304.case" horiz-adv-x="0" 
d="M11 757v54h311v-54h-311z" />
    <glyph glyph-name="eslash" horiz-adv-x="234" 
d="M10 300v49l214 144v-49z" />
    <glyph glyph-name="ethbar" horiz-adv-x="390" 
d="M0 325v49h390v-49h-390z" />
    <glyph glyph-name="ringacutecomb.case" horiz-adv-x="333" 
d="M166 722q-43 0 -71 29.5t-28 69.5q0 41 28.5 70.5t70.5 29.5q14 0 28 -4l95 104l56 -50l-108 -79q29 -30 29 -71t-29.5 -70t-70.5 -29zM165 756q29 0 48 19t19 46t-19 46.5t-47 19.5q-22 0 -36.5 -11t-21.5 -26.5t-7 -27.5t6.5 -27.5t21 -27t36.5 -11.5z" />
    </font>
</defs>
</svg>
